<?xml version="1.0" standalone="no"?>
<!DOCTYPE svg PUBLIC "-//W3C//DTD SVG 1.1//EN" "http://www.w3.org/Graphics/SVG/1.1/DTD/svg11.dtd" >
<svg xmlns="http://www.w3.org/2000/svg" xmlns:xlink="http://www.w3.org/1999/xlink" version="1.1">
<metadata></metadata>
<defs>
<font id="houschkaroundedaltregular_4" horiz-adv-x="1228" >
<font-face units-per-em="2048" ascent="1542" descent="-506" />
<missing-glyph horiz-adv-x="530" />
<glyph unicode="&#xfb01;" horiz-adv-x="1138" d="M6 831q0 43 31 75t74 32h67v106q0 160 84 263.5t287 103.5q158 0 274 -43q135 -51 135 -141q0 -49 -31.5 -80t-95.5 -31q-37 0 -110 33q-82 37 -133 37q-76 0 -107.5 -46t-31.5 -136v-66h421q66 0 101 -37t35 -94v-696q0 -53 -41 -92t-95 -39q-57 0 -96 38.5t-39 92.5 v614h-286v-614q0 -53 -40 -92t-95.5 -39t-95.5 38.5t-40 92.5v614h-67q-43 0 -74 30.5t-31 75.5z" />
<glyph unicode="&#xfb02;" horiz-adv-x="1140" d="M6 831q0 43 31 75t74 32h67v106q0 158 89 262.5t292 104.5q164 0 281 -43q100 -39 134 -93.5t34 -160.5v-1003q0 -53 -41 -92t-95 -39q-55 0 -96 38.5t-41 92.5v997q0 35 -41 56.5t-100 21.5q-145 0 -145 -182v-66h133q43 0 72.5 -32t29.5 -75q0 -45 -29.5 -75.5 t-72.5 -30.5h-133v-614q0 -53 -40 -92t-95.5 -39t-95.5 38.5t-40 92.5v614h-67q-43 0 -74 30.5t-31 75.5z" />
<glyph unicode="&#xfb03;" horiz-adv-x="1748" d="M6 831q0 43 31 75t74 32h67v111q0 152 74 255t231 103q106 0 185 -33q106 -45 106 -129q0 -43 -25.5 -72.5t-62.5 -29.5q-23 0 -61.5 14t-71.5 14q-104 0 -104 -143v-90h339v106q0 160 84 263.5t285 103.5q164 0 277 -45q135 -49 135 -139q0 -49 -33 -80t-96 -31 q-39 0 -109 33q-82 37 -133 37q-76 0 -107.5 -46t-31.5 -136v-66h422q63 0 99 -38t36 -93v-696q0 -53 -41 -92t-94 -39q-57 0 -96 38.5t-39 92.5v614h-287v-614q0 -53 -40 -92t-95.5 -39t-95.5 38.5t-40 92.5v614h-339v-614q0 -53 -40 -92t-95.5 -39t-95.5 38.5t-40 92.5 v614h-67q-43 0 -74 30.5t-31 75.5z" />
<glyph unicode="&#xfb04;" horiz-adv-x="1748" d="M6 831q0 43 31 75t74 32h67v111q0 152 74 255t231 103q106 0 185 -33q106 -45 106 -129q0 -43 -25.5 -72.5t-62.5 -29.5q-23 0 -61.5 14t-71.5 14q-104 0 -104 -143v-90h339v106q0 160 84 263.5t285 103.5q158 0 275 -43q104 -39 144 -95t40 -159v-1003q0 -53 -40 -92 t-95.5 -39t-95 38.5t-39.5 92.5v997q0 35 -41 56.5t-101 21.5q-145 0 -145 -182v-66h129q43 0 72.5 -32t29.5 -75q0 -45 -29.5 -75.5t-72.5 -30.5h-129v-614q0 -53 -40 -92t-95.5 -39t-95.5 38.5t-40 92.5v614h-339v-614q0 -53 -40 -92t-95.5 -39t-95.5 38.5t-40 92.5v614 h-67q-43 0 -74 30.5t-31 75.5z" />
<glyph horiz-adv-x="0" />
<glyph unicode="&#xd;" horiz-adv-x="681" />
<glyph unicode=" "  horiz-adv-x="530" />
<glyph unicode="&#x09;" horiz-adv-x="530" />
<glyph unicode="&#xa0;" horiz-adv-x="530" />
<glyph unicode="!" horiz-adv-x="657" d="M145 1161q0 254 185 254q182 0 182 -254q0 -35 -27 -215l-65 -397q-16 -94 -90 -94t-90 94l-68 397q-27 143 -27 215zM166 143q0 70 48 117t115.5 47t115 -47t47.5 -117q0 -68 -47.5 -114.5t-115 -46.5t-115.5 47t-48 114z" />
<glyph unicode="&#x22;" horiz-adv-x="743" d="M70 1300q0 49 32.5 82t90 33t90 -32.5t32.5 -82.5q0 -23 -2 -49l-24 -219q-6 -59 -26.5 -85.5t-70 -26.5t-70 26.5t-26.5 85.5l-24 219q-2 27 -2 49zM426 1300q0 49 33 82t90 33t90 -32.5t33 -82.5q0 -23 -2 -49l-25 -219q-6 -59 -26.5 -85.5t-69.5 -26.5t-69.5 26.5 t-26.5 85.5l-25 219q-2 27 -2 49z" />
<glyph unicode="#" horiz-adv-x="1390" d="M0 307q0 45 29.5 76t72.5 31h201l59 278h-163q-43 0 -73 31t-30 74t30 74.5t73 31.5h207l61 285q10 41 46 63.5t79 14.5q41 -8 65.5 -45t16.5 -78l-51 -240h288l60 285q8 41 45 63.5t80 14.5q43 -10 67.5 -46t16.5 -77l-52 -240h158q43 0 74 -31.5t31 -74.5t-31 -74 t-74 -31h-201l-59 -278h166q41 0 71.5 -31t30.5 -76q0 -43 -30.5 -74.5t-71.5 -31.5h-209l-59 -281q-8 -43 -45 -66.5t-80 -13.5q-41 10 -65.5 46t-16.5 77l49 238h-291l-57 -281q-8 -43 -46 -66.5t-81 -13.5q-43 8 -66.5 45t-15.5 78l51 238h-158q-43 0 -72.5 31.5 t-29.5 74.5zM520 414h289l59 278h-290z" />
<glyph unicode="$" d="M125 193q0 55 39 93t92 38q16 0 32.5 -5.5t28 -10.5t34 -18.5t36.5 -21.5q94 -49 209 -49q111 0 158 44t47 106q0 82 -111 131q-37 16 -170 58t-201 81q-188 104 -188 324q0 145 109.5 241.5t306.5 112.5v125q0 29 20.5 49t51 20t51 -20.5t20.5 -48.5v-123 q133 -10 254 -57q113 -43 113 -134q0 -55 -37 -92t-92 -37q-18 0 -37 5.5t-45.5 17.5t-44.5 18q-117 41 -180 41q-199 0 -199 -118q0 -72 108 -119q33 -14 198 -65.5t239 -108.5q135 -100 135 -279q0 -168 -112.5 -274.5t-299.5 -130.5v-119q0 -29 -20.5 -49.5t-51 -20.5 t-51 20.5t-20.5 49.5v115q-156 6 -305 71q-117 49 -117 140z" />
<glyph unicode="%" horiz-adv-x="1447" d="M51 1100q0 129 92.5 221t221.5 92q127 0 220 -92t93 -221t-93 -221.5t-220 -92.5q-129 0 -221.5 91.5t-92.5 222.5zM197 1099.5q0 -69.5 48 -118.5t117 -49q72 0 121 49t49 118.5t-49 118t-121 48.5q-70 0 -117.5 -48.5t-47.5 -118zM233 63q0 16 15 50l813 1261 q23 41 69 41q37 0 62 -25.5t25 -60.5q-1 -18 -15 -47l-813 -1262q-23 -41 -70 -40q-35 0 -60.5 24.5t-25.5 58.5zM770 293q0 129 93 221t220 92q129 0 221.5 -91t92.5 -222q0 -129 -92.5 -221t-221.5 -92q-127 0 -220 92t-93 221zM915 292.5q0 -69.5 50.5 -118.5t120 -49 t118.5 49t49 118.5t-49 119t-118.5 49.5t-120 -49.5t-50.5 -119z" />
<glyph unicode="&#x26;" horiz-adv-x="1411" d="M90 401q0 238 283 383q-74 139 -74 279q0 150 99.5 236.5t277.5 86.5q164 0 257 -88t93 -221q0 -123 -76 -210t-223 -167q86 -133 205 -245q12 35 45 168q8 35 41 58.5t80 23.5q57 0 96 -41t39 -97q0 -143 -72 -262q33 -18 83.5 -39.5t64.5 -27.5q63 -33 63 -115 q0 -61 -41 -102t-100 -41q-92 0 -260 112q-162 -113 -387 -112q-231 0 -362.5 116.5t-131.5 304.5zM362 391q0 -92 62.5 -146.5t181.5 -54.5q92 1 164 50q-160 139 -287 333q-121 -80 -121 -182zM569 1063q0 -78 47 -160q152 80 152 178q0 47 -24.5 74t-67.5 27 q-55 0 -81 -35t-26 -84z" />
<glyph unicode="'" horiz-adv-x="387" d="M70 1300q0 49 32.5 82t90 33t90 -32.5t32.5 -82.5q0 -23 -2 -49l-24 -219q-6 -59 -26.5 -85.5t-70 -26.5t-70 26.5t-26.5 85.5l-24 219q-2 27 -2 49z" />
<glyph unicode="(" horiz-adv-x="665" d="M98 602q0 543 252 895q45 61 115 62q57 0 97 -38t40 -96q0 -45 -27 -92q-190 -348 -190 -731q0 -406 190 -733q27 -45 27 -92q0 -57 -40 -95t-97 -38q-68 0 -115 61q-252 358 -252 897z" />
<glyph unicode=")" horiz-adv-x="665" d="M63 -223q0 47 27 92q190 328 191 733q0 383 -191 731q-27 47 -27 92q0 57 40 95.5t98 38.5q70 0 114 -62q254 -350 254 -895q0 -541 -254 -897q-42 -61 -114 -61q-57 0 -97.5 37.5t-40.5 95.5z" />
<glyph unicode="*" horiz-adv-x="880" d="M111 1233q25 76 102 49q27 -8 70 -27l108 -45l-12 119q-6 68 -6 74q0 35 20.5 58.5t59.5 23.5t59 -23.5t20 -58.5q0 -6 -6 -74l-10 -119l109 45q41 18 67 27q80 27 105 -49q12 -37 -4.5 -63.5t-49.5 -36.5q-10 -4 -22 -7.5t-27.5 -6.5t-23.5 -5l-115 -24l80 -89l49 -55 q47 -70 -14 -115q-63 -47 -115 19q-6 6 -39 61l-63 103l-62 -103q-31 -49 -41 -61q-51 -61 -112 -19q-63 47 -15 115l49 55l78 89l-114 24q-6 2 -33 8t-39 11q-33 10 -49.5 36.5t-3.5 63.5z" />
<glyph unicode="+" horiz-adv-x="1179" d="M72 723q0 51 36.5 89t88.5 38h266v266q0 51 37 88t90 37t90 -37t37 -88v-266h268q51 0 87 -38t36 -89q0 -53 -36 -90t-87 -37h-268v-268q0 -51 -37 -87t-90 -36t-90 35.5t-37 87.5v268h-266q-51 0 -88 37t-37 90z" />
<glyph unicode="," horiz-adv-x="559" d="M96 150q0 66 43 110.5t125 44.5q92 0 144.5 -61.5t52.5 -165.5q0 -150 -109.5 -252t-197.5 -102q-23 0 -37.5 14.5t-14.5 34.5q0 33 59.5 80t59.5 94q0 27 -19.5 47t-43 32.5t-43 44t-19.5 79.5z" />
<glyph unicode="-" horiz-adv-x="1067" d="M174 575q0 49 37 88t88 39h471q49 0 86 -38.5t37 -88.5q0 -53 -36 -91t-87 -38h-471q-51 0 -88 38t-37 91z" />
<glyph unicode="." horiz-adv-x="520" d="M96 143.5q0 67.5 47 114.5t115 47t116 -47t48 -114.5t-48 -115.5t-116 -48t-115 48t-47 115.5z" />
<glyph unicode="/" horiz-adv-x="839" d="M-16 111q-1 37 22 82l584 1142q45 84 133 84q53 0 95 -40t42 -91q0 -39 -22 -84l-584 -1141q-45 -86 -131 -86q-55 0 -97 40t-42 94z" />
<glyph unicode="0" d="M86 696q0 354 135 536.5t393 182.5t393.5 -182.5t135.5 -536.5q0 -352 -135.5 -534t-393.5 -182t-393 182t-135 534zM375 696q0 -231 65 -346q57 -100 174 -100t174 100q62 104 62 346q0 233 -62 346q-57 102 -174 103q-113 0 -172 -103q-68 -119 -67 -346z" />
<glyph unicode="1" d="M145 1153q0 41 24 75t62 48l357 121q41 16 92 16q63 0 95 -40t32 -103v-1016h217q51 0 87 -38t36 -89q0 -53 -36 -90t-87 -37h-750q-51 0 -86.5 37t-35.5 90q0 51 35.5 89t86.5 38h238v850l-199 -72q-20 -6 -41 -6q-53 0 -90 34t-37 93z" />
<glyph unicode="2" d="M133 133q0 150 35 247t119 179q76 74 230.5 156t205.5 127q76 66 76 157q0 74 -47 119q-49 49 -148 49q-88 0 -168 -45l-52 -32.5t-58.5 -31.5t-46.5 -9q-57 0 -93 34.5t-36 94.5q0 100 167 174q133 61 312 61q217 0 346 -139q100 -106 100 -266q0 -190 -143 -322 q-76 -72 -219.5 -147.5t-192.5 -116.5q-71 -64 -71 -168h522q51 0 87 -37t36 -90t-36 -90t-87 -37h-715q-53 0 -88 36t-35 97z" />
<glyph unicode="3" d="M145 166q0 51 37 88t90 37q23 0 42.5 -7.5t46 -22.5t40.5 -21q66 -29 138 -29q106 0 162.5 50t56.5 138q0 121 -109 170q-55 27 -166 27q-137 0 -137 117q0 45 31 78.5t86 33.5q104 0 162 29q92 43 92 154q0 66 -43 112.5t-123 46.5q-72 0 -141 -39q-10 -6 -31 -16 t-31 -15t-26.5 -10.5t-30.5 -5.5q-53 0 -89 37t-36 88q0 92 137 152q121 55 268 55q190 0 300 -105.5t110 -260.5q0 -227 -201 -318q254 -94 254 -356q0 -174 -127 -283.5t-348 -109.5q-141 0 -246 30q-168 49 -168 156z" />
<glyph unicode="4" d="M39 389q0 43 27 82l608 844q72 98 155 98q57 0 93 -39t36 -98v-766h113q47 0 82 -37t35 -84q0 -51 -35 -86t-82 -35h-113v-151q0 -57 -40.5 -97t-98.5 -40q-59 0 -101 39.5t-42 97.5v151h-520q-49 0 -83 35t-34 86zM395 510h281v397z" />
<glyph unicode="5" d="M143 182q0 51 37 87t90 36q14 0 25.5 -2t24 -8t19.5 -10t22.5 -14.5t21.5 -14.5q78 -45 188 -45q102 0 166 63.5t64 180.5q0 119 -56.5 180t-156.5 61q-72 0 -162 -71q-37 -31 -48 -40.5t-39 -22.5t-52 -13q-51 0 -82 30.5t-31 77.5q0 18 4 93l35 522q4 51 39 87t84 36 h584q53 0 87.5 -38t34.5 -89q0 -53 -34.5 -90t-87.5 -37h-453l-21 -260q70 45 183 45q225 0 340.5 -125t115.5 -342q0 -219 -139 -349t-375 -130q-205 0 -321 63q-107 55 -107 139z" />
<glyph unicode="6" d="M109 641q0 98 11 190.5t49 202t99.5 190.5t171 135t254.5 54q174 0 285 -49q117 -53 117 -143q0 -55 -39 -93t-94 -38q-20 0 -40 6t-47.5 19t-39.5 18q-70 31 -148 30q-150 0 -229 -159q-43 -90 -49 -199q104 92 260 92q193 0 320.5 -112.5t127.5 -338.5 q0 -211 -138 -338.5t-351 -127.5q-106 0 -195.5 32.5t-165 105t-117.5 206t-42 317.5zM397 545q10 -319 232 -320q92 0 148.5 61.5t56.5 151.5q0 113 -56.5 164t-140.5 51q-131 1 -240 -108z" />
<glyph unicode="7" d="M115 1032v238q0 51 38 88t91 37h745q51 0 87 -38t36 -89q0 -37 -22 -88l-506 -1117q-25 -53 -83.5 -73.5t-111.5 2.5q-59 27 -79.5 82t5.5 110l342 713q51 100 138 244h-424v-109q0 -51 -38 -87t-89 -36q-53 0 -91 36t-38 87z" />
<glyph unicode="8" d="M94 367q0 233 277 368q-51 33 -81 56.5t-67 63.5t-55 90t-18 114q0 154 125.5 255t336.5 101q213 0 340 -101.5t127 -254.5q0 -66 -17.5 -118t-54 -92t-64.5 -61.5t-75 -52.5q66 -41 104 -68.5t81 -72.5t62.5 -99.5t19.5 -123.5q0 -176 -138.5 -283.5t-382.5 -107.5 q-240 0 -380 105t-140 282zM385 393q0 -76 54.5 -130t175 -54t179 52t58.5 130q0 68 -62.5 118t-185.5 99q-219 -86 -219 -215zM434 1059q0 -109 199 -199q164 85 164 191q0 66 -46 105.5t-133 39.5q-184 0 -184 -137z" />
<glyph unicode="9" d="M109 944q0 211 138 339t351 128q106 0 195.5 -32.5t165 -105.5t117.5 -206t42 -317q0 -96 -11 -188.5t-49 -203t-99.5 -191.5t-171 -135.5t-252.5 -54.5q-178 0 -287 50q-115 53 -115 145q0 55 38 93t93 38q20 0 40 -6t47.5 -19.5t39.5 -17.5q74 -31 148 -31 q150 0 229 160q41 86 51 199q-104 -92 -262 -92q-190 0 -319 112.5t-129 335.5zM393 952q0 -113 57.5 -163t141.5 -50q133 1 239 107q-12 319 -233 319q-92 0 -148.5 -61.5t-56.5 -151.5z" />
<glyph unicode=":" horiz-adv-x="534" d="M106 143.5q0 67.5 47.5 114.5t115 47t114.5 -47t47 -114.5t-47 -115.5t-114.5 -48t-115 48t-47.5 115.5zM106 795q0 66 47.5 113.5t115 47.5t114.5 -47.5t47 -113.5q0 -68 -47 -116t-114.5 -48t-115 48t-47.5 116z" />
<glyph unicode=";" horiz-adv-x="534" d="M106 150q0 66 43.5 110.5t124.5 44.5q92 0 144.5 -61.5t52.5 -165.5q0 -150 -110.5 -252t-196.5 -102q-23 0 -37 14.5t-14 34.5q0 33 59 80t59 94q0 27 -19 47t-43 32.5t-43.5 44t-19.5 79.5zM121 795q0 66 47 113.5t114.5 47.5t114.5 -47.5t47 -113.5q0 -68 -47 -116 t-114.5 -48t-114.5 48t-47 116z" />
<glyph unicode="&#x3c;" horiz-adv-x="1290" d="M78 723q0 160 170 219l735 287q37 16 68 16q57 0 98 -42t41 -103q0 -98 -90 -129l-694 -248l694 -248q41 -14 65.5 -50t24.5 -81q0 -61 -42 -103t-99 -42q-20 0 -66 16l-735 287q-170 66 -170 221z" />
<glyph unicode="=" horiz-adv-x="1181" d="M72 483q0 51 36.5 89t88.5 38h790q51 0 87 -37.5t36 -89.5q0 -53 -36 -90t-87 -37h-790q-51 0 -88 37t-37 90zM72 958q0 51 36.5 89t88.5 38h790q51 0 87 -37.5t36 -89.5q0 -53 -36 -90t-87 -37h-790q-51 0 -88 37t-37 90z" />
<glyph unicode="&#x3e;" horiz-adv-x="1296" d="M100 344q0 45 25 81t65 50l695 248l-695 248q-90 31 -90 129q0 61 41 103t99 42q30 0 67 -16l735 -287q170 -68 170 -219q0 -156 -170 -221l-735 -287q-45 -16 -65 -16q-57 0 -99.5 42t-42.5 103z" />
<glyph unicode="?" horiz-adv-x="1069" d="M68 1149q0 84 122 162q158 104 359 104q190 0 318 -112.5t128 -284.5q0 -109 -49 -184.5t-160 -149.5q-119 -84 -143 -168q-33 -109 -135 -108q-53 0 -89 38.5t-36 96.5q0 74 72 172q23 31 48 55.5t79.5 67.5t66.5 53q70 57 70 127q0 68 -52.5 110.5t-138.5 42.5 q-98 0 -190 -57q-20 -12 -49 -37.5t-51.5 -38t-53.5 -12.5q-49 0 -82.5 36t-33.5 87zM350 143.5q0 67.5 47 114.5t115 47q70 0 116 -47t46 -114.5t-47 -115.5t-115 -48t-115 48t-47 115.5z" />
<glyph unicode="@" horiz-adv-x="1642" d="M94 694q0 297 226.5 509t541.5 212q293 0 488.5 -167t195.5 -443q0 -215 -104.5 -370.5t-274.5 -155.5q-106 0 -129 90q-80 -94 -237 -95q-106 0 -191 52q-106 70 -106 194q0 164 213 232q117 33 299 43q0 92 -47 139q-52 51 -138 51q-74 0 -145 -41q-8 -4 -25.5 -16.5 t-28.5 -16.5t-28 -4q-27 0 -46 19.5t-19 46.5q0 37 71 82q100 57 221 57q135 0 226 -78q98 -84 98 -252v-331q0 -55 43 -56q82 0 155.5 103.5t73.5 300.5q0 231 -159.5 366t-403.5 135q-268 0 -459.5 -179t-191.5 -431q0 -274 186.5 -443t470.5 -169q240 0 428 76 q12 4 28.5 11t27 11t20.5 4q25 0 42.5 -16.5t17.5 -40.5q0 -51 -95 -82q-213 -80 -469 -80q-338 0 -557 203t-219 530zM639 514q0 -53 45 -92q45 -35 121 -35q150 0 213 111v182q-201 -10 -283 -47q-96 -39 -96 -119z" />
<glyph unicode="A" horiz-adv-x="1263" d="M18 115q0 29 17 65l393 1082q53 153 205 153h2q156 0 209 -153l387 -1082q14 -39 14 -65q0 -61 -42 -98t-107 -37q-113 0 -142 98l-71 205h-506l-72 -205q-33 -98 -145 -98q-63 0 -102.5 39.5t-39.5 95.5zM451 520h360l-178 524z" />
<glyph unicode="B" horiz-adv-x="1267" d="M139 143v1108q0 59 42 101.5t106 42.5h356q170 0 297 -92.5t127 -262.5q0 -219 -174 -299v-4q289 -67 289 -358q0 -182 -137.5 -280.5t-327.5 -98.5h-430q-63 0 -105.5 42t-42.5 101zM434 240h217q230 0 230 176q0 82 -58.5 129t-181.5 47h-207v-352zM434 827h154 q74 0 129 39t55 135q0 74 -51 115t-131 41h-156v-330z" />
<glyph unicode="C" horiz-adv-x="1339" d="M82 698q0 301 222 508t527 207q176 0 318 -51q119 -45 119 -141q0 -59 -40 -98.5t-98 -39.5q-33 0 -117.5 33t-187.5 33q-180 0 -307 -130t-127 -321q0 -197 125 -323.5t309 -126.5q113 0 204 34.5t122 34.5q57 0 97 -38.5t40 -98.5q0 -94 -123 -143q-152 -57 -338 -57 q-326 0 -535.5 196.5t-209.5 521.5z" />
<glyph unicode="D" horiz-adv-x="1519" d="M139 143v1108q0 59 42 101.5t106 42.5h407q373 0 574 -213q170 -181 170 -484q0 -328 -201 -514q-199 -184 -571 -184h-379q-63 0 -105.5 42t-42.5 101zM434 248h209q248 0 377 129q115 115 115 321q0 205 -107 318q-123 131 -377 131h-217v-899z" />
<glyph unicode="E" horiz-adv-x="1284" d="M139 143v1108q0 59 42 101.5t106 42.5h809q53 0 90 -39t37 -92.5t-37 -92t-90 -38.5h-662v-302h555q51 0 88 -38.5t37 -92t-37 -91.5t-88 -38h-555v-309h662q53 0 90 -39t37 -92t-37 -92t-90 -39h-809q-63 0 -105.5 42t-42.5 101z" />
<glyph unicode="F" horiz-adv-x="1183" d="M139 123v1128q0 59 43.5 101.5t104.5 42.5h747q51 0 89 -39t38 -92.5t-38 -92t-89 -38.5h-600v-302h508q51 0 89 -38.5t38 -92t-37 -91.5t-90 -38h-508v-448q0 -59 -44 -101t-103 -42q-61 0 -104.5 41.5t-43.5 101.5z" />
<glyph unicode="G" horiz-adv-x="1536" d="M82 698q0 301 218 508t529 207q182 0 320 -49q119 -39 119 -143q0 -59 -40 -98.5t-98 -39.5q-37 0 -124.5 32t-182.5 32q-182 0 -308 -130t-126 -319q0 -201 121 -328.5t313 -127.5q156 0 287 63v187h-201q-51 0 -89 38.5t-38 92t38 92.5t89 39h359q63 0 98 -40t35 -104 v-487q0 -61 -40 -102t-106 -41q-90 0 -127 69q-145 -69 -318 -69h-5q-322 0 -522.5 189t-200.5 529z" />
<glyph unicode="H" horiz-adv-x="1501" d="M139 123v1147q0 59 43 101t104.5 42t104.5 -42t43 -101v-439h633v439q0 59 44 101t103 42q61 0 104.5 -42t43.5 -101v-1147q0 -59 -44 -101t-103.5 -42t-103.5 41.5t-44 101.5v448h-633v-448q0 -59 -44 -101t-103 -42q-61 0 -104.5 42t-43.5 101z" />
<glyph unicode="I" horiz-adv-x="573" d="M139 123v1147q0 59 43 101t104.5 42t104.5 -42t43 -101v-1147q0 -59 -44 -101t-103 -42q-61 0 -104.5 42t-43.5 101z" />
<glyph unicode="J" horiz-adv-x="1091" d="M16 217q0 57 39 96t97 39q43 0 118.5 -55t151.5 -55q106 0 166 53q74 68 74 235v740q0 59 44 101t103 42q61 0 104 -42t43 -101v-764q0 -281 -168 -416q-136 -110 -360 -110h-4q-205 0 -348 116q-59 53 -60 121z" />
<glyph unicode="K" horiz-adv-x="1265" d="M139 123v1147q0 59 43 101t104.5 42t104.5 -42t43 -101v-432l496 530q41 45 102 45q55 0 98.5 -42t43.5 -101q0 -55 -35 -90l-383 -389l440 -584q25 -33 25 -78q0 -57 -44 -103t-106 -46q-72 0 -121 65l-393 539l-123 -125v-336q0 -59 -44 -101t-103 -42 q-61 0 -104.5 41.5t-43.5 101.5z" />
<glyph unicode="L" horiz-adv-x="1110" d="M139 143v1127q0 59 42 101t106 42q61 0 104 -42t43 -101v-1008h516q53 0 90 -39t37 -92t-36.5 -92t-90.5 -39h-663q-63 0 -105.5 42t-42.5 101z" />
<glyph unicode="M" horiz-adv-x="1720" d="M139 117v1116q0 78 51.5 129t133.5 51q106 0 161 -92l373 -649l377 649q51 92 160 92q84 0 135 -51t51 -129v-1116q0 -57 -40 -97t-103.5 -40t-102.5 39.5t-39 97.5v766l-292 -494q-53 -90 -143.5 -90t-143.5 90l-293 494v-766q0 -57 -40 -97t-103.5 -40t-102.5 39.5 t-39 97.5z" />
<glyph unicode="N" horiz-adv-x="1521" d="M139 113v1140q0 66 49.5 113t118.5 47q88 0 144 -76l649 -848v789q0 55 42 95t99 40t99 -40t42 -95v-1139q0 -68 -49 -113.5t-121 -45.5q-90 0 -143 73l-649 850v-790q0 -55 -41 -94t-100 -39q-57 0 -98.5 38.5t-41.5 94.5z" />
<glyph unicode="O" horiz-adv-x="1656" d="M82 694q0 319 214 519t533 200q317 0 531.5 -200.5t214.5 -518t-213 -516t-532.5 -198.5t-533.5 198.5t-214 515.5zM395 694.5q0 -188.5 124 -314.5t310.5 -126t309.5 126t123 314.5t-123 315.5t-309.5 127t-310.5 -127t-124 -315.5z" />
<glyph unicode="P" horiz-adv-x="1325" d="M139 123v1128q0 59 43.5 101.5t104.5 42.5h463q207 0 333 -105q170 -139 170 -383q0 -252 -184 -393q-123 -94 -319 -94h-316v-297q0 -59 -44 -101t-103 -42q-61 0 -104.5 41.5t-43.5 101.5zM434 678h271q102 0 157 37q92 59 92 192q0 131 -88 189q-57 41 -155 41h-277 v-459z" />
<glyph unicode="Q" horiz-adv-x="1656" d="M82 694q0 319 214 519t533 200q317 0 531.5 -201t214.5 -518q0 -262 -148.5 -446.5t-390.5 -243.5q2 -12 51 -29q72 -25 136.5 -41t145.5 -34.5t124 -28.5q45 -12 67.5 -21.5t44 -39t21.5 -76.5q0 -61 -44 -97t-109 -36q-86 0 -254 56t-439 161q-61 25 -92 37 q-74 29 -74 92q0 33 17 55q-246 57 -397.5 241.5t-151.5 450.5zM395 694.5q0 -188.5 124 -314.5t310.5 -126t309.5 126t123 314.5t-123 315.5t-309.5 127t-310.5 -127t-124 -315.5z" />
<glyph unicode="R" horiz-adv-x="1382" d="M139 123v1128q0 59 42 101.5t106 42.5h481q225 0 352 -95q162 -119 162 -358q0 -207 -156 -342q-45 -37 -98 -63l229 -330q25 -35 25 -78q0 -63 -43 -106t-104 -43q-78 0 -125 69l-289 436h-287v-362q0 -59 -44 -101t-103 -42q-63 0 -105.5 41.5t-42.5 101.5zM434 733 h307q102 0 158 35q84 53 84 170q0 115 -78 168q-62 39 -160 39h-311v-412z" />
<glyph unicode="S" horiz-adv-x="1185" d="M70 207q0 59 41 100t100 41q35 0 88 -28.5t124 -57.5t150 -29q119 0 169.5 47.5t50.5 112.5q0 104 -175 164q-33 12 -110.5 34.5t-141 47.5t-116.5 59q-174 111 -174 326q0 174 139 281.5t391 107.5q199 0 328 -55q131 -56 131 -152q0 -57 -40 -97t-99 -40 q-45 0 -147.5 45t-188.5 45q-203 0 -203 -129q0 -53 45 -88t133 -63q29 -8 94.5 -26.5t105.5 -32t94 -37t95 -52.5q160 -113 160 -313q0 -203 -151.5 -320.5t-384.5 -117.5q-205 0 -371 69q-137 57 -137 158z" />
<glyph unicode="T" horiz-adv-x="1226" d="M0 1263.5q0 53.5 38 92.5t89 39h973q51 0 89 -39t38 -92.5t-38 -92t-89 -38.5h-340v-1010q0 -59 -44 -101t-103.5 -42t-103.5 41.5t-44 101.5v1010h-338q-51 0 -89 38.5t-38 92z" />
<glyph unicode="U" horiz-adv-x="1482" d="M135 551v719q0 59 44 101t104 42q63 0 105 -42t42 -101v-684q0 -152 70 -238q77 -98 239 -98q166 0 244 98q70 86 70 238v684q0 59 42 101t105 42q59 0 103.5 -42t44.5 -101v-719q0 -236 -127 -385q-164 -186 -479.5 -186t-479.5 186q-127 150 -127 385z" />
<glyph unicode="V" horiz-adv-x="1323" d="M18 1268q0 61 44 103t110 42q49 0 87 -26.5t54 -73.5l344 -955l349 957q16 45 57 71.5t90 26.5q63 0 107.5 -40t44.5 -103q0 -25 -11 -51l-428 -1088q-55 -151 -209 -151h-2q-154 0 -213 151l-413 1086q-10 27 -11 51z" />
<glyph unicode="W" horiz-adv-x="2082" d="M18 1268q0 61 44 103t110 42q113 0 143 -106l277 -949l291 945q33 110 157 110h2q119 0 156 -113l301 -942l266 957q12 45 54.5 71.5t93.5 26.5q63 0 107 -39t44 -102q0 -23 -12 -60l-344 -1081q-20 -68 -73.5 -109.5t-137.5 -41.5q-160 0 -211 151l-248 721l-235 -721 q-51 -151 -211 -151h-2q-164 0 -211 151l-350 1086q-10 27 -11 51z" />
<glyph unicode="X" horiz-adv-x="1320" d="M39 133q0 53 33 88l401 473l-387 475q-35 45 -35 88q0 63 52.5 109.5t119.5 46.5q84 0 129 -63l312 -418l307 418q45 63 129 63q66 0 118 -44t52 -112q0 -45 -33 -88l-383 -469l395 -479q33 -35 33 -86q0 -63 -51 -109t-119 -46q-84 0 -129 63l-319 426l-326 -426 q-49 -63 -131 -63q-66 0 -117 44t-51 109z" />
<glyph unicode="Y" horiz-adv-x="1196" d="M16 1272q0 61 42 101t104 40q82 0 123 -65l309 -471l315 473q45 63 125 63q61 0 103.5 -41t42.5 -100q0 -53 -29 -94l-408 -598v-457q0 -59 -44 -101t-103 -42t-103 41.5t-44 101.5v459l-404 598q-29 41 -29 92z" />
<glyph unicode="Z" horiz-adv-x="1189" d="M31 1263.5q0 53.5 37 92.5t88 39h819q53 0 90 -39t37 -92q0 -41 -21 -72l-622 -930h567q53 0 91 -40t38 -91q0 -53 -38 -92t-91 -39h-836q-53 0 -91 39t-38 92q0 39 29 80l615 922h-549q-51 0 -88 38.5t-37 92z" />
<glyph unicode="[" horiz-adv-x="808" d="M133 -193v1571q0 57 43.5 98.5t102.5 41.5h358q51 0 87 -37t36 -88.5t-36 -87t-87 -35.5h-215v-1354h215q51 0 87 -37t36 -88t-36 -87t-87 -36h-358q-59 0 -102.5 41t-43.5 98z" />
<glyph unicode="\" horiz-adv-x="675" d="M82 1243q-16 53 12.5 102.5t81.5 63.5t102.5 -12.5t63.5 -77.5l328 -1167q14 -53 -13.5 -102.5t-81.5 -63.5q-53 -16 -103 10.5t-64 79.5z" />
<glyph unicode="]" horiz-adv-x="808" d="M51 -209q0 51 35 88t86 37h215v1354h-215q-51 0 -86 35.5t-35 87t35 88.5t86 37h360q59 0 101.5 -41t42.5 -99v-1571q0 -57 -42 -98t-102 -41h-360q-51 0 -86 36t-35 87z" />
<glyph unicode="^" horiz-adv-x="1067" d="M92 899q0 39 21 68l301 458q42 70 118 70q78 0 121 -70l301 -458q20 -29 21 -68q0 -47 -35 -81t-82 -34q-66 0 -96 52l-230 354l-227 -354q-31 -51 -96 -52q-47 0 -82 34t-35 81z" />
<glyph unicode="_" horiz-adv-x="940" d="M-100 -217q0 41 29.5 71.5t70.5 30.5h940q39 0 68.5 -30.5t29.5 -71.5t-29.5 -71.5t-68.5 -30.5h-940q-41 0 -70.5 30.5t-29.5 71.5z" />
<glyph unicode="`" horiz-adv-x="954" d="M311 1485q0 41 32 70.5t75 29.5q63 0 96 -67l109 -215q18 -41 18 -64q0 -37 -27.5 -61.5t-64.5 -24.5q-53 0 -86 57l-125 205q-27 39 -27 70z" />
<glyph unicode="a" horiz-adv-x="997" d="M70 268q0 86 44 146.5t127 92.5t168 48t201 25v16q0 74 -28 111q-33 41 -111 41q-57 0 -139 -32t-119 -32q-41 0 -69.5 28.5t-28.5 69.5q0 82 118 129q117 45 271 45q199 0 295 -106q82 -88 82 -248v-491q0 -53 -41 -92t-95 -39q-76 0 -112 57q-100 -57 -252 -57 q-133 0 -222 78.5t-89 209.5zM367 204.5q39 -24.5 100 -24.5q80 0 143 39v178q-282 -10 -282 -120q0 -48 39 -72.5z" />
<glyph unicode="b" horiz-adv-x="1128" d="M133 150v1130q0 55 39 93t96 38q55 0 95 -38t40 -93v-354q93 30 193 30h6q203 0 328 -135q123 -133 123 -354q0 -193 -115 -324q-146 -163 -453 -163h-4q-143 0 -227 18q-121 27 -121 152zM403 207q37 -4 103 -4q145 0 217 92q53 70 53 172q0 119 -65 190q-68 70 -166 70 q-72 0 -142 -27v-493z" />
<glyph unicode="c" horiz-adv-x="983" d="M78 469q0 178 100 301q152 186 428 186q123 0 219 -45q107 -49 107 -129q0 -45 -32 -77.5t-77 -32.5q-33 0 -97 26.5t-120 26.5q-117 0 -188 -78q-66 -72 -66 -180q0 -113 67.5 -186.5t188.5 -73.5q66 0 130.5 24.5t88.5 24.5q45 0 77 -33t32 -80q0 -90 -141 -135 q-81 -28 -188 -28h-7q-260 0 -399 149q-123 129 -123 340z" />
<glyph unicode="d" horiz-adv-x="1120" d="M78 463q0 197 102 328q136 167 392 167h3q74 0 142 -18v340q0 55 39 94t96 39t96 -39t39 -94v-1135q0 -70 -43.5 -107.5t-109.5 -37.5h-207q-256 0 -404 123q-145 123 -145 340zM354 467q0 -115 74 -178q80 -64 227 -64h62v486q-57 14 -125 14q-121 0 -189 -90 q-49 -68 -49 -168z" />
<glyph unicode="e" horiz-adv-x="1075" d="M78 479q0 209 133 346q131 131 346 131q211 0 334 -122q117 -119 117 -295q0 -72 -35 -112t-99 -40h-512q37 -192 240 -192h2q82 0 160.5 31.5t103.5 31.5q43 0 72 -31.5t29 -76.5q0 -78 -117 -125q-109 -45 -266 -45q-238 0 -371 137q-137 141 -137 362zM360 565h385 q-6 76 -56 127t-130 51q-168 0 -199 -178z" />
<glyph unicode="f" horiz-adv-x="782" d="M6 831q0 43 31 75t74 32h67v115q0 156 73 257t245 101q119 0 209 -35q118 -47 118 -134q0 -46 -29.5 -74.5t-72.5 -28.5q-25 0 -76 18.5t-90 18.5q-57 0 -81.5 -34t-24.5 -110v-94h178q41 0 71.5 -33t30.5 -74q0 -45 -30.5 -75.5t-71.5 -30.5h-178v-614q0 -53 -40 -92 t-95.5 -39t-95.5 38.5t-40 92.5v614h-67q-43 0 -74 30.5t-31 75.5z" />
<glyph unicode="g" horiz-adv-x="1155" d="M78 471q0 219 127 358q121 127 319 127q119 0 242 -71q38 71 119 71h2q57 0 96 -38.5t39 -92.5v-856q0 -240 -137 -356q-119 -100 -326 -100q-141 0 -256 43q-147 53 -147 153q0 49 32.5 85t81.5 36q37 0 121 -45t164 -45q197 0 197 182v117q-92 -55 -226 -55 q-188 0 -311 118q-137 133 -137 369zM352 467q0 -133 62 -201q55 -59 143 -59q106 0 195 59v387q-98 72 -189 72q-94 0 -147 -59q-63 -76 -64 -199z" />
<glyph unicode="h" horiz-adv-x="1181" d="M133 111v1169q0 55 40 93t95 38q57 0 96 -38t39 -93v-436q110 112 276 112h3q174 0 274 -92q109 -98 109 -295v-458q0 -53 -41 -92t-96.5 -39t-95 38.5t-39.5 92.5v391q0 125 -48 176q-41 47 -122 47q-111 0 -165.5 -85t-54.5 -200v-329q0 -53 -40.5 -92t-94.5 -39 q-55 0 -95 38.5t-40 92.5z" />
<glyph unicode="i" horiz-adv-x="536" d="M113 1351.5q0 65.5 46 110.5t109.5 45t109.5 -45t46 -110.5t-46 -110.5t-109.5 -45t-109.5 45t-46 110.5zM133 111v714q0 53 39 92t96.5 39t96 -38.5t38.5 -92.5v-714q0 -53 -40.5 -92t-94.5 -39q-57 0 -96 38.5t-39 92.5z" />
<glyph unicode="j" horiz-adv-x="536" d="M-43 -377q0 37 17.5 58.5t52 50t59.5 65.5q47 68 47 275v755q0 53 39 92t96 39q55 0 95 -38.5t40 -92.5v-804q0 -262 -100 -402q-81 -108 -201 -108h-2q-63 0 -103 27.5t-40 82.5zM113 1351.5q0 65.5 46 110.5t109.5 45t109.5 -45t46 -110.5t-46 -110.5t-109.5 -45 t-109.5 45t-46 110.5z" />
<glyph unicode="k" horiz-adv-x="1026" d="M133 111v1167q0 55 39 94t96.5 39t96 -39t38.5 -94v-696l359 342q34 32 81 32h3q55 0 90 -37.5t35 -87.5q0 -55 -35 -86l-231 -206l266 -349q28 -38 28 -76q0 -56 -40.5 -95t-94.5 -39q-66 0 -106 57l-242 334l-113 -99v-161q0 -53 -40.5 -92t-94.5 -39q-57 0 -96 38.5 t-39 92.5z" />
<glyph unicode="l" horiz-adv-x="536" d="M133 111v1169q0 55 40 93t95 38q57 0 96 -38t39 -93v-1169q0 -53 -39.5 -92t-95 -39t-95.5 39t-40 92z" />
<glyph unicode="m" horiz-adv-x="1712" d="M133 111v710q0 55 39 94t96 39q43 0 77 -24.5t50 -61.5q96 86 238 86q193 0 293 -135q111 135 303 135q166 0 264 -92q102 -92 102 -287v-466q0 -53 -41 -92.5t-94 -39.5q-57 0 -96 39t-39 93v399q0 113 -41 168q-41 51 -119 51q-86 0 -129 -74q-37 -63 -37 -198v-346 q0 -53 -40.5 -92.5t-94.5 -39.5q-57 0 -96 39t-39 93v399q0 113 -41 168q-41 51 -119 51q-84 0 -129 -74q-33 -59 -37 -192v-350q0 -55 -39.5 -94.5t-95.5 -39.5q-57 0 -96 39t-39 95z" />
<glyph unicode="n" horiz-adv-x="1181" d="M133 111v714q0 53 39 92t96 39q51 0 88 -31.5t45 -80.5q112 112 278 112h3q174 0 274 -92q109 -98 109 -295v-458q0 -53 -41 -92t-96.5 -39t-95 38.5t-39.5 92.5v391q0 125 -48 176q-41 47 -122 47q-111 0 -165.5 -85t-54.5 -200v-329q0 -53 -40.5 -92t-94.5 -39 q-57 0 -96 38.5t-39 92.5z" />
<glyph unicode="o" horiz-adv-x="1167" d="M78 467q0 223 144.5 356t361.5 133q219 0 363.5 -133t144.5 -356t-144.5 -355t-363.5 -132t-362.5 132t-143.5 355zM344 467q0 -115 65.5 -187.5t174 -72.5t174 72.5t65.5 187.5t-65.5 187.5t-174 72.5t-174 -72.5t-65.5 -187.5z" />
<glyph unicode="p" horiz-adv-x="1122" d="M133 -362v1120q0 86 39 127t123 55q92 16 199 16q276 0 424 -147q129 -129 129 -342q0 -209 -111 -334q-138 -153 -386 -153h-3q-84 0 -144 16v-358q0 -53 -40.5 -92.5t-94.5 -39.5q-55 0 -95 39t-40 93zM403 219q49 -18 115 -18q119 0 187 59q73 62 73 203 q0 125 -65 196q-68 78 -191 78q-49 0 -119 -8v-510z" />
<glyph unicode="q" horiz-adv-x="1122" d="M78 461q0 203 117 334q146 161 430 161h4q143 0 219 -18q72 -16 106.5 -57t34.5 -123v-1120q0 -55 -39 -93.5t-96 -38.5q-55 0 -95 38t-40 94v411q-79 -69 -215 -69h-4q-199 0 -310.5 133t-111.5 348zM344 465q0 -123 55 -195q52 -69 145 -69h3q172 0 172 231v289 q-55 10 -113 10q-139 0 -211 -94q-51 -68 -51 -172z" />
<glyph unicode="r" horiz-adv-x="872" d="M133 111v714q0 53 39 92t96 39q49 0 85 -30.5t46 -75.5q89 106 232 106q96 0 166 -38q80 -45 80 -123q0 -53 -33 -89t-84 -36q-31 0 -82 24.5t-96 24.5q-178 0 -179 -258v-350q0 -53 -40.5 -92t-94.5 -39q-57 0 -96 38.5t-39 92.5z" />
<glyph unicode="s" horiz-adv-x="851" d="M55 147q0 45 30 76t75 31q37 0 108.5 -32t134.5 -32q109 0 109 74q0 31 -20.5 48.5t-65.5 37.5q-25 10 -93.5 36t-105.5 44q-151 77 -151 246q0 133 96 207.5t272 74.5q147 0 239.5 -36.5t92.5 -112.5q0 -49 -29.5 -80t-72.5 -31q-41 0 -104.5 22.5t-110.5 22.5 q-96 0 -97 -65q0 -47 89 -82q14 -6 83.5 -31.5t108.5 -44.5q154 -78 154 -239q0 -131 -104.5 -216t-278.5 -85q-358 0 -359 167z" />
<glyph unicode="t" horiz-adv-x="806" d="M6 831q0 45 31 76t74 31h65v137q0 55 39 94t96 39q55 0 95 -39t40 -94v-137h185q43 0 73.5 -30.5t30.5 -76.5q0 -43 -30.5 -74.5t-73.5 -31.5h-185v-387q0 -125 97 -125q39 0 88 28.5t82 28.5q45 0 73.5 -31.5t28.5 -76.5q0 -86 -127 -144q-92 -38 -194 -38h-5 q-158 0 -235.5 92t-77.5 237v416h-65q-43 0 -74 31.5t-31 74.5z" />
<glyph unicode="u" horiz-adv-x="1161" d="M117 406v419q0 53 39 92t96 39t96 -38.5t39 -92.5v-403q0 -76 27 -127q49 -86 168 -86q121 0 166 86q26 49 26 122v5v403q0 53 39 92t96.5 39t96 -38.5t38.5 -92.5v-419q0 -178 -81 -279q-119 -147 -381 -147q-266 0 -383 147q-82 107 -82 279z" />
<glyph unicode="v" horiz-adv-x="966" d="M18 825q0 57 40 94t110 37h2q91 0 123 -110l190 -576h9l190 586q31 100 131 100q63 0 99 -34.5t36 -90.5q0 -35 -28 -112l-228 -569q-68 -170 -217 -170q-84 0 -132 40.5t-81 129.5l-217 571q-27 66 -27 104z" />
<glyph unicode="w" horiz-adv-x="1400" d="M18 823q0 66 42 99.5t100 33.5q100 0 129 -139l135 -508l137 516q31 131 148 131q112 0 143 -131l139 -516l137 522q12 61 40 93t89 32q57 0 91 -30.5t34 -89.5q0 -37 -12 -82l-190 -615q-10 -37 -18.5 -56.5t-29 -48t-55.5 -41.5t-86 -13q-94 0 -133 40.5t-55 114.5 l-105 369l-106 -369q-14 -66 -59.5 -110.5t-120.5 -44.5q-86 0 -128 38.5t-67 120.5l-188 615q-10 39 -11 69z" />
<glyph unicode="x" horiz-adv-x="976" d="M23 115q0 10 2 20t4 17.5t7 17.5t8 14t11 14.5t10.5 13.5t13.5 14.5t13 13.5l215 239l-215 244q-49 57 -49 98q0 57 41 97t102 40q78 0 138 -75l163 -211l166 209q60 77 133 77h2q57 0 98.5 -37.5t41.5 -91.5q0 -45 -43 -92l-221 -239l243 -279q49 -55 49 -102 q0 -57 -42 -97t-103 -40q-37 0 -67.5 15t-47 30.5t-37.5 44.5l-172 215l-182 -232q-58 -73 -135 -73h-2q-63 0 -104 38.5t-41 96.5z" />
<glyph unicode="y" horiz-adv-x="1030" d="M18 807q0 63 44 107t106 44q102 0 143 -98l228 -573l178 547q38 124 147 124q61 0 104.5 -43t43.5 -104q0 -27 -27 -100l-287 -762q-82 -217 -222 -322.5t-296 -105.5q-55 0 -93 38t-38 91t38 91t93 38q150 0 226 155l-355 775q-33 72 -33 98z" />
<glyph unicode="z" horiz-adv-x="880" d="M10 821q0 47 34 83t81 36h604q47 0 81 -30.5t34 -75.5q0 -49 -45 -109l-393 -487h344q47 0 79.5 -36t32.5 -83q0 -49 -32.5 -84t-79.5 -35h-607q-51 0 -82.5 28.5t-31.5 77.5q0 53 45 109l393 487h-342q-47 0 -81 35t-34 84z" />
<glyph unicode="{" horiz-adv-x="835" d="M45 653q0 125 78 125h10q158 0 158 264q0 23 -4 103t-4 112q0 356 401 357q47 0 74.5 -30t27.5 -73t-27.5 -70.5t-74.5 -33.5q-74 -8 -110.5 -51t-36.5 -146q0 -63 2 -125.5t2 -72.5q0 -152 -52.5 -227.5t-175.5 -131.5q123 -55 175.5 -132t52.5 -226q0 -10 -2 -73.5 t-2 -127.5q0 -100 36.5 -143t110.5 -53q102 -14 102 -103q0 -43 -27.5 -72.5t-74.5 -29.5q-401 0 -401 356q0 33 4 112t4 103q0 264 -158 264h-10q-78 0 -78 125z" />
<glyph unicode="|" horiz-adv-x="552" d="M143 -334v1616q0 53 40 92t98 39q55 0 95 -39t40 -92v-1616q0 -55 -40 -94t-95 -39q-57 0 -98.5 39t-39.5 94z" />
<glyph unicode="}" horiz-adv-x="835" d="M49 -205q0 88 103 103q74 10 110.5 53t36.5 143q0 63 -2 127t-2 74q0 150 52 226.5t175 131.5q-123 55 -175 131t-52 228q0 10 2 72.5t2 125.5q0 102 -37 145.5t-110 51.5q-47 6 -75 33.5t-28 70.5t27.5 73t75.5 30q401 0 401 -357q0 -33 -3 -112.5t-3 -102.5 q0 -264 155 -264h11q78 0 78 -125t-78 -125h-11q-156 0 -155 -264q0 -25 3 -103.5t3 -111.5q0 -356 -401 -356q-47 0 -75 29.5t-28 72.5z" />
<glyph unicode="~" horiz-adv-x="1308" d="M111 541q0 115 95 199.5t216 84.5q94 0 173 -44t141.5 -88t113.5 -44q41 0 69.5 23.5t43 51.5t44 51.5t72.5 23.5q57 0 89 -38t32 -97q0 -109 -93 -195t-218 -86q-92 0 -170 44t-140.5 87t-117.5 43q-41 0 -71 -23.5t-44 -52t-43 -52t-72 -23.5q-57 0 -88.5 37.5 t-31.5 97.5z" />
<glyph unicode="&#xa0;" />
<glyph unicode="&#xa1;" horiz-adv-x="663" d="M152 -223q0 35 26 215l66 397q16 94 90 94t90 -94l68 -397q27 -143 26 -215q0 -254 -184 -254q-182 0 -182 254zM172 795q0 68 47 114.5t114.5 46.5t116 -47t48.5 -114q0 -70 -48.5 -117t-116 -47t-114.5 47t-47 117z" />
<glyph unicode="&#xa2;" d="M186 471q0 182 111 313q127 143 332 168v129q0 27 21.5 47.5t49.5 20.5q31 0 51.5 -19.5t20.5 -48.5v-127q84 -10 162 -45q106 -51 106 -125q0 -45 -32.5 -77.5t-77.5 -32.5q-18 0 -90 26q-68 29 -125 29q-125 0 -195 -86q-57 -68 -57 -172q0 -119 67 -190 q72 -76 185 -76q66 0 129 22q72 29 94 29q43 0 73.5 -33t30.5 -78q0 -47 -33.5 -76.5t-105.5 -54.5q-61 -25 -131 -30v-125q0 -27 -21.5 -47.5t-50 -20.5t-50 20.5t-21.5 47.5v125q-184 23 -293 125q-150 137 -150 362z" />
<glyph unicode="&#xa3;" d="M98 127q0 53 37 90t88 37h56q84 78 83 219q0 18 -4 55h-102q-47 0 -80 35t-33 82t33 82t80 35h35q-37 121 -37 223q0 180 121 304t352 124q141 0 248 -33q113 -37 112 -123q0 -51 -32.5 -86.5t-79.5 -35.5q-29 0 -105 22q-66 16 -116 17q-117 0 -169.5 -57.5 t-52.5 -141.5q0 -100 39 -213h273q47 0 80.5 -35t33.5 -82t-33.5 -82t-80.5 -35h-211q4 -37 4 -55q0 -127 -78 -219h445q51 0 87.5 -37t36.5 -90t-36.5 -90t-87.5 -37h-781q-51 0 -88 37t-37 90z" />
<glyph unicode="&#xa4;" horiz-adv-x="1437" d="M103 299q-1 47 34 82l135 135q-82 123 -82 279q0 154 82 280l-135 139q-33 33 -32 80t36 84q33 35 81 36t81 -34l137 -139q125 84 281 84q152 0 276 -82l138 135q33 33 80 32t83 -36q35 -33 35 -81t-33 -81l-133 -133q84 -129 84 -284.5t-84 -280.5l133 -131 q33 -33 33 -80t-35 -82q-35 -37 -82 -38t-81 34l-134 129q-127 -82 -280 -82q-156 0 -285 84l-133 -133q-33 -33 -80 -33t-82 35q-37 35 -38 82zM371 794.5q0 -143.5 103.5 -247t246.5 -103.5t245.5 103.5t102.5 247t-102.5 246t-245.5 102.5t-246.5 -102.5t-103.5 -246z " />
<glyph unicode="&#xa5;" d="M33 1270q0 61 42 100t103 39q84 0 123 -66l309 -471l316 474q43 63 125 63q61 0 103 -40t42 -101q0 -49 -29 -94l-282 -408h151q39 0 66.5 -28.5t27.5 -69.5t-27.5 -69t-66.5 -28h-276v-139h276q39 0 66.5 -29.5t27.5 -68.5q0 -41 -27.5 -69.5t-66.5 -28.5h-276v-115 q0 -59 -44 -102.5t-104 -43.5q-61 0 -104 43t-43 103v115h-279q-39 0 -66.5 28.5t-27.5 69.5q0 39 27.5 68.5t66.5 29.5h279v139h-279q-39 0 -66.5 29t-27.5 68q0 41 27.5 69.5t66.5 28.5h156l-281 410q-29 41 -28 94z" />
<glyph unicode="&#xa6;" horiz-adv-x="548" d="M139 244q0 53 39 92t96 39q55 0 95.5 -39t40.5 -92v-578q0 -55 -40 -94t-96 -39q-57 0 -96 39t-39 94v578zM139 707v577q0 53 39 92t96 39q55 0 95.5 -39t40.5 -92v-577q0 -55 -40 -94.5t-96 -39.5q-57 0 -96 39t-39 95z" />
<glyph unicode="&#xa7;" horiz-adv-x="1077" d="M94 526q1 187 148 322q-66 86 -66 194q0 170 111.5 271.5t285.5 101.5q162 0 269 -61q94 -53 94 -125q0 -47 -35 -81t-82 -34q-18 0 -35.5 6t-26.5 11.5t-26.5 18.5t-25.5 19q-53 35 -121 35q-45 0 -84 -28.5t-39 -94.5q0 -63 54 -120.5t130 -108.5t152.5 -107.5 t131 -140.5t54.5 -184q0 -188 -147 -324q68 -88 67 -194q0 -170 -111.5 -271.5t-285.5 -101.5q-164 0 -270 61q-92 53 -93 125q0 47 34 81t83 34q14 0 26.5 -2t26 -9t19.5 -11.5t21.5 -16.5t21.5 -16q51 -33 121 -33q45 0 83.5 28.5t38.5 94.5q0 61 -54 119.5t-131 108.5 t-153.5 106.5t-131 140.5t-54.5 186zM377 565q0 -39 13 -72.5t49 -66.5t58.5 -51.5t80 -55.5t77.5 -51q45 45 45 111q0 39 -14 72.5t-48 66.5t-58.5 52.5t-79 55.5t-76.5 52q-47 -51 -47 -113z" />
<glyph unicode="&#xa8;" horiz-adv-x="954" d="M84 1354q0 63 46 109t110 46q66 0 110.5 -45t44.5 -110.5t-44.5 -111.5t-110.5 -46q-63 0 -109.5 46t-46.5 112zM559 1354q0 63 46 109t109.5 46t109.5 -46t46 -109q0 -66 -46 -112t-109.5 -46t-109.5 46t-46 112z" />
<glyph unicode="&#xa9;" horiz-adv-x="1687" d="M82 735.5q0 313.5 220 533.5t536 220q313 0 533 -220t220 -533.5t-220 -533.5t-533.5 -220t-534.5 220t-221 533.5zM233 735q0 -256 175.5 -434t429.5 -178t429 178t175 434q0 254 -175 433.5t-429 179.5q-252 0 -428.5 -179.5t-176.5 -433.5zM475 727q0 162 117 269.5 t278 107.5q88 0 162 -27q66 -20 66 -76q0 -31 -20.5 -51t-51.5 -20q-20 0 -65.5 16.5t-94.5 16.5q-94 0 -160.5 -67t-66.5 -167q0 -104 65.5 -169.5t161.5 -65.5q53 0 100.5 16t67.5 16q33 0 54.5 -20.5t21.5 -52.5q0 -51 -66 -74q-76 -29 -176 -29q-174 0 -283.5 103.5 t-109.5 273.5z" />
<glyph unicode="&#xaa;" horiz-adv-x="606" d="M66 1008q0 90 92 137q76 37 223 47v8q0 57 -25 80q-23 18 -59 18q-45 0 -90 -23.5t-57 -23.5q-25 0 -42.5 17.5t-17.5 42.5q0 47 75 75.5t152 28.5q96 0 154 -47q70 -53 70 -186v-269q0 -33 -23.5 -55t-56.5 -22q-51 0 -70 47q-61 -47 -147 -47q-74 0 -127 47 q-51 45 -51 125zM137 565.5q0 22.5 16.5 40t39.5 17.5h225q23 0 39 -17.5t16 -40t-16.5 -40t-38.5 -17.5h-225q-23 0 -39.5 17.5t-16.5 40zM219 1014q0 -29 22.5 -46.5t57.5 -17.5q49 0 82 27v121q-74 -8 -109 -23q-53 -20 -53 -61z" />
<glyph unicode="&#xab;" horiz-adv-x="1331" d="M82 461q0 49 37 86l344 358q37 37 90 37q49 0 86 -36t37 -85t-35 -88l-264 -272l264 -273q35 -39 35 -88q0 -51 -37 -85.5t-88 -34.5t-88 36l-344 359q-37 37 -37 86zM657 461q0 49 37 86l344 358q37 37 90 37q49 0 86 -36t37 -85t-34 -88l-265 -272l265 -273 q35 -39 34 -88q0 -51 -36.5 -85.5t-88 -34.5t-88.5 36l-344 359q-37 37 -37 86z" />
<glyph unicode="&#xac;" horiz-adv-x="1202" d="M72 721q0 55 38 95t91 40h800q53 0 91 -40t38 -95v-270q0 -51 -37.5 -87t-91.5 -36q-51 0 -90 36.5t-39 86.5v137h-671q-53 0 -91 39t-38 94z" />
<glyph unicode="&#xad;" horiz-adv-x="1067" d="M174 575q0 49 37 88t88 39h471q49 0 86 -38.5t37 -88.5q0 -53 -36 -91t-87 -38h-471q-51 0 -88 38t-37 91z" />
<glyph unicode="&#xae;" horiz-adv-x="931" d="M82 1093.5q0 155.5 109.5 266t265.5 110.5q158 0 268.5 -110.5t110.5 -266t-111 -265t-266.5 -109.5t-266 109.5t-110.5 265zM160 1094q0 -125 87 -213t212 -88t212 88t87 213q0 127 -87 215t-212 88t-212 -88t-87 -215zM307 946v295q0 41 39 41h131q61 0 99 -31.5 t38 -89.5q0 -72 -65 -104l57 -82q12 -18 12 -29q0 -39 -43 -39q-20 0 -34 21l-76 114h-76v-96q0 -14 -13.5 -26.5t-29.5 -12.5q-14 0 -26.5 11.5t-12.5 27.5zM389 1110h78q65 0 65 53q0 49 -65 49h-78v-102z" />
<glyph unicode="&#xaf;" horiz-adv-x="954" d="M180 1325q0 47 33 79t78 32h373q45 0 76.5 -33t31.5 -78t-31.5 -76.5t-76.5 -31.5h-373q-45 0 -78 31.5t-33 76.5z" />
<glyph unicode="&#xb0;" horiz-adv-x="757" d="M102 1214.5q0 114.5 81 195.5t196 81t195.5 -81t80.5 -195.5t-80.5 -195.5t-195.5 -81t-196 81t-81 195.5zM217 1214q0 -70 46 -117.5t116 -47.5t118 48t48 117.5t-48 116.5t-118 47t-116 -46t-46 -118z" />
<glyph unicode="&#xb1;" horiz-adv-x="1181" d="M72 127q0 53 37 90t88 37h788q51 0 88 -37t37 -90t-37 -90t-88 -37h-788q-51 0 -88 37t-37 90zM72 858q0 51 36.5 89t88.5 38h266v268q0 51 37 87t90 36t90 -35.5t37 -87.5v-268h268q51 0 88 -38t37 -89q0 -53 -37 -90t-88 -37h-268v-268q0 -51 -37 -87t-90 -36t-90 36 t-37 87v268h-266q-51 0 -88 37t-37 90z" />
<glyph unicode="&#xb2;" horiz-adv-x="854" d="M172 750q0 141 80 221q23 23 51.5 42t68.5 40.5t54 31.5q92 49 92 113q0 39 -27.5 62.5t-72.5 23.5q-43 0 -86 -24q-57 -33 -80 -33q-29 0 -48.5 19.5t-19.5 45.5q0 51 74 88q80 35 164 35q109 0 175.5 -59.5t66.5 -151.5q0 -98 -70 -164q-35 -35 -107.5 -74.5 t-93.5 -54.5q-55 -37 -55 -94h270q27 0 45.5 -19.5t18.5 -48t-18.5 -48t-45.5 -19.5h-364q-33 0 -52.5 18.5t-19.5 49.5z" />
<glyph unicode="&#xb3;" horiz-adv-x="854" d="M188 768q0 29 19.5 48.5t46.5 19.5q14 0 68 -27q29 -16 69 -16q115 0 115 98q0 61 -60 84q-20 10 -61 12t-59 10q-33 14 -33 54q0 37 33 53q16 6 53 8t57 12q45 23 45 78q0 33 -21.5 57.5t-62.5 24.5q-37 0 -71 -20q-37 -20 -60 -21q-27 0 -47 19.5t-20 44.5q0 45 49 69 q76 39 162 39q98 0 154.5 -55t56.5 -137q0 -117 -103 -164q131 -47 131 -182q0 -90 -65.5 -147.5t-180.5 -57.5q-80 0 -131 16q-84 25 -84 80z" />
<glyph unicode="&#xb4;" horiz-adv-x="954" d="M311 1239q0 31 19 64l108 215q33 68 97 67q43 0 74.5 -29.5t31.5 -70.5q0 -25 -27 -70l-125 -205q-37 -57 -88 -57q-37 0 -63.5 24.5t-26.5 61.5z" />
<glyph unicode="&#xb5;" horiz-adv-x="1161" d="M117 -238v1063q0 53 39 92t96 39t96 -38.5t39 -92.5v-403q0 -76 27 -127q49 -86 168 -86q121 0 166 86q27 51 26 127v403q0 53 39 92t96.5 39t96 -38.5t38.5 -92.5v-419q0 -178 -81 -279q-119 -147 -381 -147q-109 0 -195 24v-242q0 -53 -41 -93t-94 -40q-55 0 -95 40 t-40 93z" />
<glyph unicode="&#xb6;" horiz-adv-x="1499" d="M70 1053q0 199 122.5 306t348.5 107h825q45 0 78 -32.5t33 -79.5t-33 -80t-78 -33h-186v-1534q0 -47 -37 -82t-84 -35q-49 0 -84 35t-35 82v1534h-227v-1534q0 -47 -36 -82t-85 -35t-84 35t-35 82v930q-188 10 -295.5 121.5t-107.5 294.5z" />
<glyph unicode="&#xb7;" horiz-adv-x="528" d="M96 706.5q0 71.5 50.5 121t119.5 49.5q72 0 122 -49.5t50 -121t-50 -120.5t-122 -49q-70 0 -120 49t-50 120.5z" />
<glyph unicode="&#xb8;" horiz-adv-x="923" d="M274 -362q0 27 20.5 48t49.5 21q10 0 36 -4t44 -4q117 0 117 72q0 70 -109 69q-25 0 -41 16.5t-12 47.5l14 135h135l2 -96q88 -12 137.5 -61t49.5 -115q0 -106 -86 -156.5t-215 -50.5q-45 0 -78 8q-63 14 -64 70z" />
<glyph unicode="&#xb9;" horiz-adv-x="854" d="M166 1274q0 53 51 69l186 64q21 8 39 8q70 0 70 -78v-520h111q29 0 46 -19.5t17 -48t-17.5 -48t-45.5 -19.5h-387q-29 0 -47.5 19.5t-18.5 48.5q0 27 18.5 47t47.5 20h122v432l-90 -30q-23 -8 -39 -9q-63 0 -63 64z" />
<glyph unicode="&#xba;" horiz-adv-x="765" d="M82 1124q0 115 68 193q88 98 233 98t231 -98q70 -76 70 -193q0 -115 -70 -190q-86 -98 -231 -98t-233 98q-68 77 -68 190zM215 565.5q0 22.5 15 40t38 17.5h226q23 0 39 -17.5t16 -40t-16.5 -40t-38.5 -17.5h-226q-23 0 -38 17.5t-15 40zM242 1124.5q0 -59.5 30 -100.5 q41 -55 111 -55t111 55q31 45 30.5 100.5t-30.5 102.5q-41 55 -111 55t-111 -55q-30 -43 -30 -102.5z" />
<glyph unicode="&#xbb;" horiz-adv-x="1331" d="M82 100q0 53 33 88l264 273l-264 272q-33 35 -33 88q0 51 36 86t85 35q53 0 90 -37l344 -358q39 -39 39 -86t-39 -86l-344 -359q-37 -36 -88 -36q-49 0 -86 34.5t-37 85.5zM655 100q0 49 35 88l262 273l-262 272q-35 39 -35 88t37 85t86 36q53 0 90 -37l344 -358 q37 -37 37 -86t-37 -86l-344 -359q-37 -36 -88 -36t-88 34.5t-37 85.5z" />
<glyph unicode="&#xbc;" horiz-adv-x="854" d="M82 485.5q0 28.5 19.5 48t45.5 19.5h558q29 0 48 -20.5t19 -47t-19.5 -47t-47.5 -20.5h-558q-27 0 -46 19.5t-19 48zM113 -227q0 20 16 43l324 450q29 37 63 37q31 0 52.5 -22.5t21.5 -51.5v-393h59q25 0 43.5 -19.5t18.5 -43.5q0 -27 -18.5 -45.5t-43.5 -18.5h-59v-78 q0 -29 -21.5 -50t-52.5 -21t-52.5 21.5t-21.5 49.5v78h-266q-27 0 -45 18.5t-18 45.5zM162 1274q0 53 51 69l186 64q25 8 39 8q72 0 72 -78v-520h111q29 0 46 -20.5t17 -46.5q0 -29 -17.5 -48.5t-45.5 -19.5h-390q-27 0 -46 19.5t-19 48.5q0 27 19.5 47t45.5 20h123v432 l-90 -30q-23 -8 -39 -9q-27 0 -45 17.5t-18 46.5zM301 -164h141v199z" />
<glyph unicode="&#xbd;" horiz-adv-x="854" d="M82 485.5q0 28.5 19.5 48t45.5 19.5h558q31 0 49 -19.5t18 -48t-18.5 -48t-48.5 -19.5h-558q-31 0 -48 19.5t-17 48zM162 1274q0 53 51 69l186 64q25 8 39 8q72 0 72 -78v-520h111q29 0 46 -20.5t17 -46.5q0 -29 -17.5 -48.5t-45.5 -19.5h-390q-27 0 -46 19.5t-19 48.5 q0 27 19.5 47t45.5 20h123v432l-90 -30q-25 -8 -39 -9q-27 0 -45 17.5t-18 46.5zM172 -362q0 141 78 221q23 23 50.5 42t72.5 43.5t53 28.5q90 53 90 113q0 39 -27.5 62.5t-72.5 23.5t-84 -25q-61 -33 -82 -32q-27 0 -46.5 19.5t-19.5 45.5q0 53 74 88q80 35 164 35 q109 0 174.5 -59.5t65.5 -151.5q0 -100 -68 -164q-37 -35 -109.5 -74.5t-93.5 -54.5q-53 -37 -53 -94h268q27 0 46.5 -19.5t19.5 -48t-19.5 -48t-46.5 -19.5h-362q-72 0 -72 68z" />
<glyph unicode="&#xbe;" horiz-adv-x="854" d="M82 485.5q0 28.5 19.5 48t45.5 19.5h558q29 0 48 -20.5t19 -47t-19.5 -47t-47.5 -20.5h-558q-27 0 -46 19.5t-19 48zM113 -227q0 20 16 43l324 450q29 37 63 37q31 0 52.5 -22.5t21.5 -51.5v-393h59q25 0 43.5 -19.5t18.5 -43.5q0 -27 -18.5 -45.5t-43.5 -18.5h-59v-78 q0 -29 -21.5 -50t-52.5 -21t-52.5 21.5t-21.5 49.5v78h-266q-27 0 -45 18.5t-18 45.5zM182 768q0 29 19.5 48.5t46.5 19.5q14 0 67 -27q29 -16 70 -16q115 0 115 98q0 61 -60 84q-20 10 -61 12t-60 10q-33 14 -32 54q0 37 32 53q16 6 53.5 8t57.5 12q45 23 45 78 q0 33 -21.5 57.5t-62.5 24.5q-37 0 -72 -20q-37 -20 -59 -21q-27 0 -47 19.5t-20 44.5q0 45 49 69q76 39 161 39q98 0 154.5 -55t56.5 -137q0 -117 -102 -164q131 -47 131 -182q0 -90 -65.5 -147.5t-180.5 -57.5q-80 0 -131 16q-84 25 -84 80zM301 -164h141v199z" />
<glyph unicode="&#xbf;" horiz-adv-x="1019" d="M80 -82q0 109 49 184.5t160 149.5q119 84 143 168q33 109 135 108q53 0 89 -38.5t36 -96.5q0 -74 -71 -172q-23 -31 -48.5 -55.5t-80 -67.5t-66.5 -53q-70 -57 -70 -127q0 -68 52.5 -111t138.5 -43q98 0 190 58q20 12 49 37.5t51.5 38t53.5 12.5q49 0 83 -36t34 -87 q0 -84 -123 -162q-158 -104 -359 -104q-190 0 -318 112.5t-128 284.5zM401 792.5q0 67.5 47.5 115.5t115 48t114.5 -48t47 -115.5t-47 -114.5t-115 -47q-70 0 -116 47t-46 114.5z" />
<glyph unicode="&#xc0;" horiz-adv-x="1263" d="M18 115q0 29 17 65l393 1082q53 154 207 153q156 0 209 -153l387 -1082q14 -39 14 -65q0 -61 -42 -98t-107 -37q-113 0 -142 98l-71 205h-506l-72 -205q-33 -98 -145 -98q-63 0 -102.5 39.5t-39.5 95.5zM451 520h360l-178 524zM467 1903q0 41 31.5 70.5t74.5 29.5 q63 0 97 -68l108 -215q19 -40 19 -63q0 -37 -28 -61.5t-64 -24.5q-53 0 -87 57l-124 205q-27 39 -27 70z" />
<glyph unicode="&#xc1;" horiz-adv-x="1263" d="M18 115q0 29 17 65l393 1082q53 154 207 153q156 0 209 -153l387 -1082q14 -39 14 -65q0 -61 -42 -98t-107 -37q-113 0 -142 98l-71 205h-506l-72 -205q-33 -98 -145 -98q-63 0 -102.5 39.5t-39.5 95.5zM451 520h360l-178 524zM467 1657q0 31 18 63l109 215q33 68 96 68 q43 0 75 -29.5t32 -70.5q0 -25 -27 -70l-125 -205q-37 -57 -88 -57q-37 0 -63.5 24.5t-26.5 61.5z" />
<glyph unicode="&#xc2;" horiz-adv-x="1263" d="M18 115q0 29 17 65l393 1082q53 154 207 153q156 0 209 -153l387 -1082q14 -39 14 -65q0 -61 -42 -98t-107 -37q-113 0 -142 98l-71 205h-506l-72 -205q-33 -98 -145 -98q-63 0 -102.5 39.5t-39.5 95.5zM293 1681q0 39 45 78l217 207q37 33 76 33q37 0 74 -33l219 -207 q43 -37 43 -78q0 -43 -28 -69.5t-67 -26.5q-35 0 -65 25l-176 170l-176 -170q-31 -25 -66 -25q-39 0 -67.5 26.5t-28.5 69.5zM451 520h360l-178 524z" />
<glyph unicode="&#xc3;" horiz-adv-x="1263" d="M18 115q0 29 17 65l393 1082q53 154 207 153q156 0 209 -153l387 -1082q14 -39 14 -65q0 -61 -42 -98t-107 -37q-113 0 -142 98l-71 205h-506l-72 -205q-33 -98 -145 -98q-63 0 -102.5 39.5t-39.5 95.5zM258 1753q0 66 49 119q66 76 164 76q82 0 162 -56q8 -6 25.5 -18 t26.5 -18.5t23.5 -14.5t28 -11t25.5 -3q39 0 76 53q39 51 82 51q39 0 60 -26.5t21 -67.5q0 -63 -47 -119q-70 -76 -163 -76q-82 0 -162 56q-6 4 -32 21.5t-35 22.5t-28.5 12t-35.5 7q-18 0 -35 -9t-22 -15t-19 -27q-39 -51 -80 -51t-62.5 26.5t-21.5 67.5zM451 520h360 l-178 524z" />
<glyph unicode="&#xc4;" horiz-adv-x="1263" d="M18 115q0 29 17 65l393 1082q53 154 207 153q156 0 209 -153l387 -1082q14 -39 14 -65q0 -61 -42 -98t-107 -37q-113 0 -142 98l-71 205h-506l-72 -205q-33 -98 -145 -98q-63 0 -102.5 39.5t-39.5 95.5zM238 1763q0 63 45 109.5t110.5 46.5t110.5 -45t45 -110.5 t-45 -111.5t-111 -46q-63 0 -109 46t-46 111zM451 520h360l-178 524zM713 1763q0 63 45 109.5t110.5 46.5t110.5 -46t45 -110q0 -66 -46 -111.5t-109.5 -45.5t-109.5 46t-46 111z" />
<glyph unicode="&#xc5;" horiz-adv-x="1263" d="M18 115q0 29 17 65l393 1082q53 154 207 153q156 0 209 -153l387 -1082q14 -39 14 -65q0 -61 -42 -98t-107 -37q-113 0 -142 98l-71 205h-506l-72 -205q-33 -98 -145 -98q-63 0 -102.5 39.5t-39.5 95.5zM383 1757q0 104 72.5 177t177.5 73q102 0 175 -73t73 -177 q0 -102 -73 -175t-175 -73q-104 0 -177 73t-73 175zM451 520h360l-178 524zM504 1757q0 -55 37 -93t92 -38q53 0 91 39t38 92q0 55 -38 93t-91 38q-55 0 -92 -38t-37 -93z" />
<glyph unicode="&#xc6;" horiz-adv-x="2025" d="M18 117q0 53 43 108l805 1030q55 72 106.5 105t135.5 35h731q51 0 88 -39t37 -92.5t-37 -92t-88 -38.5h-561v-302h451q53 0 91 -38.5t38 -92t-38 -91.5t-91 -38h-451v-309h561q49 0 87 -40t38 -91q0 -53 -37 -92t-88 -39h-709q-61 0 -104 42t-43 101v140h-516l-158 -205 q-31 -41 -44 -55.5t-40.5 -28.5t-66.5 -14q-63 0 -101.5 36.5t-38.5 100.5zM647 520h336v441z" />
<glyph unicode="&#xc7;" horiz-adv-x="1339" d="M82 698q0 301 222 508t527 207q176 0 318 -51q119 -45 119 -141q0 -59 -40 -98.5t-98 -39.5q-33 0 -117.5 33t-187.5 33q-180 0 -307 -130t-127 -321q0 -197 125 -323.5t309 -126.5q113 0 204 34.5t122 34.5q57 0 97 -38.5t40 -98.5q0 -94 -123 -143q-129 -49 -282 -55 l2 -39q88 -12 137 -61t49 -115q0 -106 -86 -156.5t-215 -50.5q-45 0 -78 8q-63 14 -63 70q0 27 21.5 48t47.5 21q10 0 36 -4t44 -4q117 0 117 72q0 70 -109 69q-25 0 -40 16.5t-13 47.5l8 80q-293 27 -476 219t-183 495z" />
<glyph unicode="&#xc8;" horiz-adv-x="1284" d="M139 143v1108q0 59 42 101.5t106 42.5h809q53 0 90 -39t37 -92.5t-37 -92t-90 -38.5h-662v-302h555q51 0 88 -38.5t37 -92t-37 -91.5t-88 -38h-555v-309h662q53 0 90 -39t37 -92t-37 -92t-90 -39h-809q-63 0 -105.5 42t-42.5 101zM475 1894q0 41 32 71t75 30q63 0 96 -68 l108 -215q19 -40 19 -63q0 -37 -27.5 -61.5t-64.5 -24.5q-51 0 -86 57l-125 205q-27 39 -27 69z" />
<glyph unicode="&#xc9;" horiz-adv-x="1284" d="M139 143v1108q0 59 42 101.5t106 42.5h809q53 0 90 -39t37 -92.5t-37 -92t-90 -38.5h-662v-302h555q51 0 88 -38.5t37 -92t-37 -91.5t-88 -38h-555v-309h662q53 0 90 -39t37 -92t-37 -92t-90 -39h-809q-63 0 -105.5 42t-42.5 101zM483 1649q0 31 19 63l108 215 q33 68 97 68q43 0 74.5 -30t31.5 -71q0 -25 -27 -69l-124 -205q-37 -57 -89 -57q-37 0 -63.5 24.5t-26.5 61.5z" />
<glyph unicode="&#xca;" horiz-adv-x="1284" d="M139 143v1108q0 59 42 101.5t106 42.5h809q53 0 90 -39t37 -92.5t-37 -92t-90 -38.5h-662v-302h555q51 0 88 -38.5t37 -92t-37 -91.5t-88 -38h-555v-309h662q53 0 90 -39t37 -92t-37 -92t-90 -39h-809q-63 0 -105.5 42t-42.5 101zM307 1673q0 37 45 78l217 207 q37 33 76 33t76 -33l217 -207q45 -41 45 -78q0 -43 -28.5 -69.5t-67.5 -26.5q-41 0 -72 31l-170 164l-170 -164q-31 -31 -72 -31q-39 0 -67.5 26.5t-28.5 69.5z" />
<glyph unicode="&#xcb;" horiz-adv-x="1284" d="M139 143v1108q0 59 42 101.5t106 42.5h809q53 0 90 -39t37 -92.5t-37 -92t-90 -38.5h-662v-302h555q51 0 88 -38.5t37 -92t-37 -91.5t-88 -38h-555v-309h662q53 0 90 -39t37 -92t-37 -92t-90 -39h-809q-63 0 -105.5 42t-42.5 101zM254 1763q0 63 45 109.5t110.5 46.5 t110.5 -45t45 -110.5t-44.5 -111.5t-110.5 -46q-63 0 -109.5 46t-46.5 111zM729 1763q0 63 45 109.5t110.5 46.5t110.5 -46t45 -110q0 -66 -46 -111.5t-109.5 -45.5t-109.5 46t-46 111z" />
<glyph unicode="&#xcc;" horiz-adv-x="571" d="M125 1894q0 41 31.5 71t74.5 30q63 0 97 -68l108 -215q19 -40 19 -63q0 -37 -28 -61.5t-65 -24.5q-51 0 -86 57l-124 205q-27 39 -27 69zM139 123v1147q0 59 43 101t104.5 42t104.5 -42t43 -101v-1147q0 -59 -44 -101t-103 -42q-61 0 -104.5 42t-43.5 101z" />
<glyph unicode="&#xcd;" horiz-adv-x="571" d="M125 1649q0 31 18 63l109 215q33 68 96 68q43 0 75 -30t32 -71q0 -25 -27 -69l-125 -205q-37 -57 -88 -57q-37 0 -63.5 24.5t-26.5 61.5zM139 123v1147q0 59 43 101t104.5 42t104.5 -42t43 -101v-1147q0 -59 -44 -101t-103 -42q-61 0 -104.5 42t-43.5 101z" />
<glyph unicode="&#xce;" horiz-adv-x="571" d="M-49 1673q0 37 45 78l217 207q37 33 76 33t76 -33l217 -207q45 -41 45 -78q0 -43 -29 -69.5t-68 -26.5q-41 0 -71 31l-170 164l-170 -164q-31 -31 -72 -31q-39 0 -67.5 26.5t-28.5 69.5zM139 123v1147q0 59 43 101t104.5 42t104.5 -42t43 -101v-1147q0 -59 -44 -101 t-103 -42q-61 0 -104.5 42t-43.5 101z" />
<glyph unicode="&#xcf;" horiz-adv-x="571" d="M-104 1763q0 63 46 109.5t109 46.5q66 0 111 -45t45 -110.5t-45 -111.5t-111 -46q-63 0 -109 46t-46 111zM139 123v1147q0 59 43 101t104.5 42t104.5 -42t43 -101v-1147q0 -59 -44 -101t-103 -42q-61 0 -104.5 42t-43.5 101zM371 1763q0 63 46 109.5t109.5 46.5 t109.5 -46t46 -110q0 -66 -46 -111.5t-109.5 -45.5t-109.5 46t-46 111z" />
<glyph unicode="&#xd0;" horiz-adv-x="1540" d="M-43 698q0 49 37 88t88 39h78v426q0 59 43 101.5t104 42.5h408q180 0 320.5 -46t254.5 -167q168 -182 168 -484q0 -330 -198 -514q-203 -184 -574 -184h-379q-61 0 -104 42t-43 101v428h-78q-53 0 -89 37t-36 90zM455 248h211q199 0 317 76q174 113 174 374 q0 203 -106 316q-125 133 -379 133h-217v-322h184q49 0 85 -38.5t36 -88.5q0 -53 -36 -90t-85 -37h-184v-323z" />
<glyph unicode="&#xd1;" horiz-adv-x="1521" d="M139 113v1140q0 66 49.5 113t118.5 47q88 0 144 -76l649 -848v789q0 55 42 95t99 40t99 -40t42 -95v-1139q0 -68 -49 -113.5t-121 -45.5q-90 0 -143 73l-649 850v-790q0 -55 -41 -94t-100 -39q-57 0 -98.5 38.5t-41.5 94.5zM387 1751q0 66 49 119q66 76 168 76 q82 0 162 -56q8 -6 25.5 -18t26.5 -18.5t23.5 -14.5t28 -11t25.5 -3q37 0 73 52t81 52q39 0 60 -26.5t21 -67.5q0 -63 -47 -119q-70 -76 -168 -76q-82 0 -161 56q-6 4 -32 21.5t-35 22.5t-28.5 12t-35.5 7q-37 0 -71 -51t-81 -51q-41 0 -62.5 26.5t-21.5 67.5z" />
<glyph unicode="&#xd2;" horiz-adv-x="1656" d="M82 694q0 319 214 519t533 200q317 0 531.5 -200.5t214.5 -518t-213 -516t-532.5 -198.5t-533.5 198.5t-214 515.5zM395 694.5q0 -188.5 124 -314.5t310.5 -126t309.5 126t123 314.5t-123 315.5t-309.5 127t-310.5 -127t-124 -315.5zM664 1894q0 41 31.5 71t74.5 30 q63 0 96 -68l109 -215q18 -40 18 -63q0 -37 -27.5 -61.5t-64.5 -24.5q-51 0 -86 57l-125 205q-27 39 -26 69z" />
<glyph unicode="&#xd3;" horiz-adv-x="1656" d="M82 694q0 319 214 519t533 200q317 0 531.5 -200.5t214.5 -518t-213 -516t-532.5 -198.5t-533.5 198.5t-214 515.5zM395 694.5q0 -188.5 124 -314.5t310.5 -126t309.5 126t123 314.5t-123 315.5t-309.5 127t-310.5 -127t-124 -315.5zM664 1649q0 31 18 63l109 215 q33 68 96 68q43 0 74.5 -30t31.5 -71q0 -25 -26 -69l-125 -205q-37 -57 -88 -57q-37 0 -63.5 24.5t-26.5 61.5z" />
<glyph unicode="&#xd4;" horiz-adv-x="1656" d="M82 694q0 319 214 519t533 200q317 0 531.5 -200.5t214.5 -518t-213 -516t-532.5 -198.5t-533.5 198.5t-214 515.5zM395 694.5q0 -188.5 124 -314.5t310.5 -126t309.5 126t123 314.5t-123 315.5t-309.5 127t-310.5 -127t-124 -315.5zM489 1673q0 37 46 78l217 207 q36 33 75 33t76 -33l217 -207q45 -41 45 -78q0 -43 -28.5 -69.5t-67.5 -26.5q-41 0 -72 31l-170 164l-170 -164q-31 -31 -71 -31q-39 0 -68 26.5t-29 69.5z" />
<glyph unicode="&#xd5;" horiz-adv-x="1656" d="M82 694q0 319 214 519t533 200q317 0 531.5 -200.5t214.5 -518t-213 -516t-532.5 -198.5t-533.5 198.5t-214 515.5zM395 694.5q0 -188.5 124 -314.5t310.5 -126t309.5 126t123 314.5t-123 315.5t-309.5 127t-310.5 -127t-124 -315.5zM453 1751q0 66 49 119q66 76 168 76 q82 0 161 -56q8 -6 25.5 -18t27 -18.5t24 -14.5t27.5 -11t26 -3q37 0 72.5 52t80.5 52q39 0 60.5 -26.5t21.5 -67.5q0 -63 -47 -119q-70 -76 -168 -76q-82 0 -162 56q-6 4 -31.5 21.5t-35 22.5t-28.5 12t-36 7q-37 0 -70.5 -51t-80.5 -51q-41 0 -62.5 26.5t-21.5 67.5z" />
<glyph unicode="&#xd6;" horiz-adv-x="1656" d="M82 694q0 319 214 519t533 200q317 0 531.5 -200.5t214.5 -518t-213 -516t-532.5 -198.5t-533.5 198.5t-214 515.5zM395 694.5q0 -188.5 124 -314.5t310.5 -126t309.5 126t123 314.5t-123 315.5t-309.5 127t-310.5 -127t-124 -315.5zM434 1763q0 63 45 109.5t110.5 46.5 t110.5 -45t45 -110.5t-44.5 -111.5t-110.5 -46q-63 0 -109.5 46t-46.5 111zM909 1763q0 63 45 109.5t110.5 46.5t111 -46t45.5 -110q0 -66 -46.5 -111.5t-110 -45.5t-109.5 46t-46 111z" />
<glyph unicode="&#xd7;" horiz-adv-x="1062" d="M70.5 1057q1.5 51 38.5 90q37 37 89 37t89 -35l245 -246l246 246q35 35 88.5 34t89.5 -36q39 -37 39 -90t-37 -88l-247 -246l247 -246q37 -35 36 -88t-38 -90q-39 -37 -91 -37t-87 35l-246 246l-245 -246q-37 -35 -89.5 -35t-89 37t-37.5 89t35 89l246 246l-246 246 q-37 37 -35.5 88z" />
<glyph unicode="&#xd8;" horiz-adv-x="1656" d="M82 694q0 319 214 519t533 200q225 0 404 -104l53 59q27 33 72 33q41 0 69.5 -27.5t28.5 -70.5q0 -33 -22 -62l-48 -55q189 -199 189 -492q0 -317 -213 -515.5t-533 -198.5q-223 0 -405 102l-53 -62q-29 -33 -72 -32q-41 0 -69.5 28.5t-28.5 69.5q0 35 22 61l47 56 q-188 199 -188 491zM395 694q0 -147 78 -260l242 281l323 370q-96 51 -209 52q-186 0 -310 -127t-124 -316zM618 305q96 -51 211 -51q186 0 309.5 126t123.5 314q0 143 -78 260z" />
<glyph unicode="&#xd9;" horiz-adv-x="1482" d="M135 551v719q0 59 44 101t104 42q63 0 105 -42t42 -101v-684q0 -152 70 -238q77 -98 239 -98q166 0 244 98q70 86 70 238v684q0 59 42 101t105 42q59 0 103.5 -42t44.5 -101v-719q0 -236 -127 -385q-164 -186 -479.5 -186t-479.5 186q-127 150 -127 385zM575 1894 q0 41 32 71t75 30q63 0 96 -68l109 -215q18 -40 18 -63q0 -37 -27.5 -61.5t-64.5 -24.5q-51 0 -86 57l-125 205q-27 39 -27 69z" />
<glyph unicode="&#xda;" horiz-adv-x="1482" d="M135 551v719q0 59 44 101t104 42q63 0 105 -42t42 -101v-684q0 -152 70 -238q77 -98 239 -98q166 0 244 98q70 86 70 238v684q0 59 42 101t105 42q59 0 103.5 -42t44.5 -101v-719q0 -236 -127 -385q-164 -186 -479.5 -186t-479.5 186q-127 150 -127 385zM575 1649 q0 31 19 63l108 215q33 68 97 68q43 0 74.5 -30t31.5 -71q0 -25 -26 -69l-125 -205q-37 -57 -88 -57q-37 0 -64 24.5t-27 61.5z" />
<glyph unicode="&#xdb;" horiz-adv-x="1482" d="M135 551v719q0 59 44 101t104 42q63 0 105 -42t42 -101v-684q0 -152 70 -238q77 -98 239 -98q166 0 244 98q70 86 70 238v684q0 59 42 101t105 42q59 0 103.5 -42t44.5 -101v-719q0 -236 -127 -385q-164 -186 -479.5 -186t-479.5 186q-127 150 -127 385zM401 1673 q0 37 45 78l218 207q36 33 75 33t76 -33l217 -207q45 -41 45 -78q0 -43 -28.5 -69.5t-67.5 -26.5q-41 0 -72 31l-170 164l-170 -164q-31 -31 -71 -31q-39 0 -68 26.5t-29 69.5z" />
<glyph unicode="&#xdc;" horiz-adv-x="1482" d="M135 551v719q0 59 44 101t104 42q63 0 105 -42t42 -101v-684q0 -152 70 -238q77 -98 239 -98q166 0 244 98q70 86 70 238v684q0 59 42 101t105 42q59 0 103.5 -42t44.5 -101v-719q0 -236 -127 -385q-164 -186 -479.5 -186t-479.5 186q-127 150 -127 385zM322 1763 q0 63 46 109.5t109 46.5q66 0 111 -45t45 -110.5t-45 -111.5t-111 -46q-63 0 -109 46t-46 111zM797 1763q0 63 46 109.5t109.5 46.5t109.5 -46t46 -110q0 -66 -46 -111.5t-109.5 -45.5t-109.5 46t-46 111z" />
<glyph unicode="&#xdd;" horiz-adv-x="1196" d="M16 1272q0 61 42 101t104 40q82 0 123 -65l309 -471l315 473q45 63 125 63q61 0 103.5 -41t42.5 -100q0 -53 -29 -94l-408 -598v-457q0 -59 -44 -101t-103 -42t-103 41.5t-44 101.5v459l-404 598q-29 41 -29 92zM453 1649q0 31 18 63l109 215q33 68 96 68q43 0 74.5 -30 t31.5 -71q0 -25 -26 -69l-125 -205q-37 -57 -88 -57q-37 0 -63.5 24.5t-26.5 61.5z" />
<glyph unicode="&#xde;" horiz-adv-x="1325" d="M139 -135v1405q0 59 43 101t104.5 42t104.5 -42t43 -101v-137h316q207 0 333 -105q170 -137 170 -383q0 -123 -49 -225.5t-135 -165.5q-125 -96 -319 -96h-316v-293q0 -59 -44 -101.5t-103 -42.5q-61 0 -104.5 42.5t-43.5 101.5zM434 416h271q115 0 174 49q75 59 75 180 q0 113 -63 170q-61 59 -180 59h-277v-458z" />
<glyph unicode="&#xdf;" horiz-adv-x="1212" d="M133 -14v1038q0 184 122 287.5t304 103.5q209 0 324.5 -85t115.5 -238q0 -63 -25.5 -112.5t-61 -76t-70.5 -46t-60.5 -36.5t-25.5 -33q0 -27 32.5 -49t95 -51t95.5 -49q158 -102 158 -289q0 -156 -108.5 -263t-278.5 -107q-137 0 -226 40q-96 49 -96 132q0 51 27.5 83.5 t76.5 32.5q27 0 84 -30q53 -29 125 -29q57 0 97.5 33.5t40.5 87.5q0 76 -86 121q-8 4 -69.5 34.5t-85.5 47t-65 52.5t-58 80t-17 97q0 39 22.5 68.5t54 48t64.5 39t55.5 54.5t22.5 81q0 68 -42 104.5t-108 36.5q-61 0 -109 -39t-48 -131v-1038q0 -55 -41 -95.5t-97 -40.5 q-57 0 -98 40t-41 96z" />
<glyph unicode="&#xe0;" horiz-adv-x="997" d="M70 268q0 86 44 146.5t127 92.5t168 48t201 25v16q0 74 -28 111q-33 41 -111 41q-57 0 -139 -32t-119 -32q-41 0 -69.5 28.5t-28.5 69.5q0 82 118 129q117 45 271 45q199 0 295 -106q82 -88 82 -248v-491q0 -53 -41 -92t-95 -39q-76 0 -112 57q-100 -57 -252 -57 q-133 0 -222 78.5t-89 209.5zM328 276q0 -47 39 -71.5t100 -24.5q80 0 143 39v178q-283 -10 -282 -121zM336 1485q0 41 31.5 70.5t74.5 29.5q63 0 97 -67l108 -215q19 -41 19 -64q0 -37 -28 -61.5t-65 -24.5q-51 0 -86 57l-125 205q-27 39 -26 70z" />
<glyph unicode="&#xe1;" horiz-adv-x="997" d="M70 268q0 86 44 146.5t127 92.5t168 48t201 25v16q0 74 -28 111q-33 41 -111 41q-57 0 -139 -32t-119 -32q-41 0 -69.5 28.5t-28.5 69.5q0 82 118 129q117 45 271 45q199 0 295 -106q82 -88 82 -248v-491q0 -53 -41 -92t-95 -39q-76 0 -112 57q-100 -57 -252 -57 q-133 0 -222 78.5t-89 209.5zM328 276q0 -47 39 -71.5t100 -24.5q80 0 143 39v178q-283 -10 -282 -121zM332 1239q0 31 18 64l109 215q33 68 96 67q43 0 75 -29.5t32 -70.5q0 -25 -27 -70l-125 -205q-37 -57 -88 -57q-37 0 -63.5 24.5t-26.5 61.5z" />
<glyph unicode="&#xe2;" horiz-adv-x="997" d="M70 268q0 86 44 146.5t127 92.5t168 48t201 25v16q0 74 -28 111q-33 41 -111 41q-57 0 -139 -32t-119 -32q-41 0 -69.5 28.5t-28.5 69.5q0 82 118 129q117 45 271 45q199 0 295 -106q82 -88 82 -248v-491q0 -53 -41 -92t-95 -39q-76 0 -112 57q-100 -57 -252 -57 q-133 0 -222 78.5t-89 209.5zM160 1264q0 37 45 77l217 207q37 33 76 33t75 -33l218 -207q45 -41 45 -77q0 -43 -29 -70t-68 -27q-41 0 -71 31l-170 164l-170 -164q-31 -31 -72 -31q-39 0 -67.5 27t-28.5 70zM328 276q0 -47 39 -71.5t100 -24.5q80 0 143 39v178 q-283 -10 -282 -121z" />
<glyph unicode="&#xe3;" horiz-adv-x="997" d="M70 268q0 86 44 146.5t127 92.5t168 48t201 25v16q0 74 -28 111q-33 41 -111 41q-57 0 -139 -32t-119 -32q-41 0 -69.5 28.5t-28.5 69.5q0 82 118 129q117 45 271 45q199 0 295 -106q82 -88 82 -248v-491q0 -53 -41 -92t-95 -39q-76 0 -112 57q-100 -57 -252 -57 q-133 0 -222 78.5t-89 209.5zM123 1325q0 66 49 119q66 76 168 76q82 0 162 -56q8 -6 25.5 -18t26.5 -18.5t23.5 -14.5t27.5 -11t26 -3q37 0 72.5 52t80.5 52q39 0 60.5 -26.5t21.5 -67.5q0 -63 -47 -119q-70 -76 -168 -76q-82 0 -162 56q-6 4 -31.5 21.5t-34.5 22.5 t-28.5 12t-36.5 7q-37 0 -70.5 -51t-80.5 -51q-41 0 -62.5 26.5t-21.5 67.5zM328 276q0 -47 39 -71.5t100 -24.5q80 0 143 39v178q-283 -10 -282 -121z" />
<glyph unicode="&#xe4;" horiz-adv-x="997" d="M70 268q0 86 44 146.5t127 92.5t168 48t201 25v16q0 74 -28 111q-33 41 -111 41q-57 0 -139 -32t-119 -32q-41 0 -69.5 28.5t-28.5 69.5q0 82 118 129q117 45 271 45q199 0 295 -106q82 -88 82 -248v-491q0 -53 -41 -92t-95 -39q-76 0 -112 57q-100 -57 -252 -57 q-133 0 -222 78.5t-89 209.5zM104 1354q0 63 46.5 109t109.5 46q66 0 111 -45t45 -110.5t-45 -111.5t-111 -46q-63 0 -109.5 46t-46.5 112zM328 276q0 -47 39 -71.5t100 -24.5q80 0 143 39v178q-283 -10 -282 -121zM580 1354q0 63 46 109t109.5 46t109.5 -46t46 -109 q0 -66 -46 -112t-109.5 -46t-109.5 46t-46 112z" />
<glyph unicode="&#xe5;" horiz-adv-x="997" d="M70 268q0 86 44 146.5t127 92.5t168 48t201 25v16q0 74 -28 111q-33 41 -111 41q-57 0 -139 -32t-119 -32q-41 0 -69.5 28.5t-28.5 69.5q0 82 118 129q117 45 271 45q199 0 295 -106q82 -88 82 -248v-491q0 -53 -41 -92t-95 -39q-76 0 -112 57q-100 -57 -252 -57 q-133 0 -222 78.5t-89 209.5zM252 1366q0 104 72.5 177t177.5 73q102 0 175 -73t73 -177q0 -102 -73 -175t-175 -73q-104 0 -177 73t-73 175zM328 276q0 -47 39 -71.5t100 -24.5q80 0 143 39v178q-283 -10 -282 -121zM373 1366q0 -55 36.5 -93t92.5 -38q53 0 91 39t38 92 q0 55 -38 93t-91 38q-55 0 -92 -38t-37 -93z" />
<glyph unicode="&#xe6;" horiz-adv-x="1601" d="M70 266q0 86 46 144.5t133 89t165 44t188 21.5v35q0 76 -27 111q-33 41 -108 41q-70 0 -156 -37q-76 -31 -100 -31q-41 0 -68.5 28.5t-27.5 69.5q0 76 118 125q127 49 267 49q102 0 176 -36q61 -31 98 -82q127 119 309 118q211 0 334 -122q117 -119 117 -295 q0 -137 -133 -138h-514q35 -207 243 -206q82 0 161 31.5t104 31.5q43 0 71.5 -31.5t28.5 -76.5q0 -78 -117 -125q-109 -45 -266 -45q-240 0 -383 147q-139 -147 -352 -147q-135 0 -221 80.5t-86 205.5zM328 274q0 -45 37 -73.5t100 -28.5q102 0 182 84q-29 61 -39 143 q-281 -12 -280 -125zM887 565h385q-6 76 -56.5 127t-130.5 51q-167 0 -198 -178z" />
<glyph unicode="&#xe7;" horiz-adv-x="983" d="M78 469q0 178 100 301q152 186 428 186q123 0 219 -45q106 -49 107 -129q0 -45 -32 -77.5t-77 -32.5q-33 0 -97 26.5t-120 26.5q-117 0 -188 -78q-66 -72 -66 -180q0 -113 67.5 -186.5t188.5 -73.5q66 0 130.5 24.5t88.5 24.5q45 0 77 -33t32 -80q0 -90 -141 -135 q-59 -20 -142 -26l2 -39q88 -12 137.5 -61t49.5 -115q0 -106 -86 -156.5t-215 -50.5q-45 0 -78 8q-63 14 -64 70q0 27 21.5 48t48.5 21q10 0 35.5 -4t44.5 -4q117 0 117 72q0 70 -109 69q-25 0 -40 16.5t-13 47.5l8 82q-199 23 -311 143q-123 129 -123 340z" />
<glyph unicode="&#xe8;" horiz-adv-x="1075" d="M78 479q0 209 133 346q131 131 346 131q211 0 334 -122q117 -119 117 -295q0 -72 -35 -112t-99 -40h-512q37 -193 242 -192q82 0 160.5 31.5t103.5 31.5q43 0 72 -31.5t29 -76.5q0 -78 -117 -125q-109 -45 -266 -45q-238 0 -371 137q-137 141 -137 362zM360 565h385 q-6 76 -56 127t-130 51q-168 0 -199 -178zM389 1485q0 41 32 70.5t75 29.5q63 0 96 -67l108 -215q19 -41 19 -64q0 -37 -27.5 -61.5t-64.5 -24.5q-51 0 -86 57l-125 205q-27 39 -27 70z" />
<glyph unicode="&#xe9;" horiz-adv-x="1075" d="M78 479q0 209 133 346q131 131 346 131q211 0 334 -122q117 -119 117 -295q0 -72 -35 -112t-99 -40h-512q37 -193 242 -192q82 0 160.5 31.5t103.5 31.5q43 0 72 -31.5t29 -76.5q0 -78 -117 -125q-109 -45 -266 -45q-238 0 -371 137q-137 141 -137 362zM360 565h385 q-6 76 -56 127t-130 51q-168 0 -199 -178zM369 1239q0 31 18 64l109 215q33 68 96 67q43 0 74.5 -29.5t31.5 -70.5q0 -25 -26 -70l-125 -205q-37 -57 -88 -57q-37 0 -63.5 24.5t-26.5 61.5z" />
<glyph unicode="&#xea;" horiz-adv-x="1075" d="M78 479q0 209 133 346q131 131 346 131q211 0 334 -122q117 -119 117 -295q0 -72 -35 -112t-99 -40h-512q37 -193 242 -192q82 0 160.5 31.5t103.5 31.5q43 0 72 -31.5t29 -76.5q0 -78 -117 -125q-109 -45 -266 -45q-238 0 -371 137q-137 141 -137 362zM197 1264 q0 37 45 77l217 207q37 33 75.5 33t75.5 -33l217 -207q45 -41 45 -77q0 -43 -28.5 -70t-67.5 -27q-41 0 -71 31l-170 164l-170 -164q-31 -31 -72 -31q-39 0 -67.5 27t-28.5 70zM360 565h385q-6 76 -56 127t-130 51q-168 0 -199 -178z" />
<glyph unicode="&#xeb;" horiz-adv-x="1075" d="M78 479q0 209 133 346q131 131 346 131q211 0 334 -122q117 -119 117 -295q0 -72 -35 -112t-99 -40h-512q37 -193 242 -192q82 0 160.5 31.5t103.5 31.5q43 0 72 -31.5t29 -76.5q0 -78 -117 -125q-109 -45 -266 -45q-238 0 -371 137q-137 141 -137 362zM141 1354 q0 63 46 109t110 46q66 0 111 -45t45 -110.5t-45 -111.5t-111 -46q-63 0 -109.5 46t-46.5 112zM360 565h385q-6 76 -56 127t-130 51q-168 0 -199 -178zM616 1354q0 63 46.5 109t110 46t109.5 -46t46 -109q0 -66 -46 -112t-109.5 -46t-110 46t-46.5 112z" />
<glyph unicode="&#xec;" horiz-adv-x="536" d="M106 1485q0 41 32 70.5t75 29.5q63 0 96 -67l109 -215q18 -41 18 -64q0 -37 -27.5 -61.5t-64.5 -24.5q-51 0 -86 57l-125 205q-27 39 -27 70zM133 111v714q0 53 39 92t96.5 39t96 -38.5t38.5 -92.5v-714q0 -53 -40.5 -92t-94.5 -39q-57 0 -96 38.5t-39 92.5z" />
<glyph unicode="&#xed;" horiz-adv-x="536" d="M104 1239q0 31 19 64l108 215q33 68 97 67q43 0 74.5 -29.5t31.5 -70.5q0 -25 -26 -70l-125 -205q-37 -57 -88 -57q-37 0 -64 24.5t-27 61.5zM133 111v714q0 53 39 92t96.5 39t96 -38.5t38.5 -92.5v-714q0 -53 -40.5 -92t-94.5 -39q-57 0 -96 38.5t-39 92.5z" />
<glyph unicode="&#xee;" horiz-adv-x="536" d="M-68 1264q0 37 45 77l218 207q36 33 75 33t76 -33l217 -207q45 -41 45 -77q0 -43 -28.5 -70t-67.5 -27q-41 0 -72 31l-170 164l-170 -164q-31 -31 -71 -31q-39 0 -68 27t-29 70zM133 111v714q0 53 39 92t96.5 39t96 -38.5t38.5 -92.5v-714q0 -53 -40.5 -92t-94.5 -39 q-57 0 -96 38.5t-39 92.5z" />
<glyph unicode="&#xef;" horiz-adv-x="536" d="M-123 1354q0 63 45 109t110.5 46t110.5 -45t45 -110.5t-44.5 -111.5t-110.5 -46q-63 0 -109.5 46t-46.5 112zM133 111v714q0 53 39 92t96.5 39t96 -38.5t38.5 -92.5v-714q0 -53 -40.5 -92t-94.5 -39q-57 0 -96 38.5t-39 92.5zM352 1354q0 63 45 109t110.5 46t111 -46 t45.5 -109q0 -66 -46.5 -112t-110 -46t-109.5 46t-46 112z" />
<glyph unicode="&#xf0;" horiz-adv-x="1060" d="M78 428q0 180 117 297q123 121 309 121q63 0 125 -29q-53 113 -166 221l-111 -86q-27 -20 -57 -20q-37 0 -63.5 27.5t-26.5 64.5q0 41 37 72l77 61q-47 43 -65 66q-23 25 -23 63q0 55 36 93t89 38q41 0 90 -37q20 -14 80 -69l111 86q27 20 55 20q39 0 65.5 -26.5 t26.5 -67.5q0 -43 -39 -72l-81 -61q321 -334 321 -727q0 -231 -130 -357t-327 -126q-180 0 -301 102q-150 123 -149 346zM328 428q0 -106 59 -166q55 -55 141 -55q92 0 147.5 62.5t55.5 193.5q0 70 -12 133q-74 41 -174 41q-96 0 -160 -68q-57 -57 -57 -141z" />
<glyph unicode="&#xf1;" horiz-adv-x="1181" d="M133 111v714q0 53 39 92t96 39q51 0 88 -31.5t45 -80.5q113 113 281 112q174 0 274 -92q109 -98 109 -295v-458q0 -53 -41 -92t-96.5 -39t-95 38.5t-39.5 92.5v391q0 125 -48 176q-41 47 -122 47q-111 0 -165.5 -85t-54.5 -200v-329q0 -53 -40.5 -92t-94.5 -39 q-57 0 -96 38.5t-39 92.5zM207 1325q0 66 49 119q66 76 168 76q82 0 162 -56q8 -6 25.5 -18t26.5 -18.5t23.5 -14.5t27.5 -11t26 -3q37 0 72.5 52t80.5 52q39 0 60.5 -26.5t21.5 -67.5q0 -63 -47 -119q-70 -76 -168 -76q-82 0 -162 56q-6 4 -31.5 21.5t-34.5 22.5t-28.5 12 t-36.5 7q-37 0 -70.5 -51t-80.5 -51q-41 0 -62.5 26.5t-21.5 67.5z" />
<glyph unicode="&#xf2;" horiz-adv-x="1167" d="M78 467q0 223 144.5 356t361.5 133q219 0 363.5 -133t144.5 -356t-144.5 -355t-363.5 -132t-362.5 132t-143.5 355zM344 467q0 -115 65.5 -187.5t174 -72.5t174 72.5t65.5 187.5t-65.5 187.5t-174 72.5t-174 -72.5t-65.5 -187.5zM418 1485q0 41 31.5 70.5t74.5 29.5 q63 0 97 -67l108 -215q19 -41 19 -64q0 -37 -28 -61.5t-65 -24.5q-51 0 -86 57l-125 205q-27 39 -26 70z" />
<glyph unicode="&#xf3;" horiz-adv-x="1167" d="M78 467q0 223 144.5 356t361.5 133q219 0 363.5 -133t144.5 -356t-144.5 -355t-363.5 -132t-362.5 132t-143.5 355zM344 467q0 -115 65.5 -187.5t174 -72.5t174 72.5t65.5 187.5t-65.5 187.5t-174 72.5t-174 -72.5t-65.5 -187.5zM418 1239q0 31 18 64l109 215 q33 68 96 67q43 0 75 -29.5t32 -70.5q0 -25 -27 -70l-125 -205q-37 -57 -88 -57q-37 0 -63.5 24.5t-26.5 61.5z" />
<glyph unicode="&#xf4;" horiz-adv-x="1167" d="M78 467q0 223 144.5 356t361.5 133q219 0 363.5 -133t144.5 -356t-144.5 -355t-363.5 -132t-362.5 132t-143.5 355zM246 1264q0 37 45 77l217 207q37 33 76 33t75 -33l218 -207q45 -41 45 -77q0 -43 -29 -70t-68 -27q-41 0 -71 31l-170 164l-170 -164q-31 -31 -72 -31 q-39 0 -67.5 27t-28.5 70zM344 467q0 -115 65.5 -187.5t174 -72.5t174 72.5t65.5 187.5t-65.5 187.5t-174 72.5t-174 -72.5t-65.5 -187.5z" />
<glyph unicode="&#xf5;" horiz-adv-x="1167" d="M78 467q0 223 144.5 356t361.5 133q219 0 363.5 -133t144.5 -356t-144.5 -355t-363.5 -132t-362.5 132t-143.5 355zM209 1325q0 66 49 119q66 76 168 76q82 0 162 -56q8 -6 25.5 -18t26.5 -18.5t23.5 -14.5t28 -11t25.5 -3q37 0 72.5 52t80.5 52q39 0 60.5 -26.5 t21.5 -67.5q0 -63 -47 -119q-70 -76 -168 -76q-82 0 -162 56q-6 4 -31.5 21.5t-34.5 22.5t-28.5 12t-36.5 7q-37 0 -70.5 -51t-80.5 -51q-41 0 -62.5 26.5t-21.5 67.5zM344 467q0 -115 65.5 -187.5t174 -72.5t174 72.5t65.5 187.5t-65.5 187.5t-174 72.5t-174 -72.5 t-65.5 -187.5z" />
<glyph unicode="&#xf6;" horiz-adv-x="1167" d="M78 467q0 223 144.5 356t361.5 133q219 0 363.5 -133t144.5 -356t-144.5 -355t-363.5 -132t-362.5 132t-143.5 355zM190 1354q0 63 46.5 109t109.5 46q66 0 111 -45t45 -110.5t-45 -111.5t-111 -46q-63 0 -109.5 46t-46.5 112zM344 467q0 -115 65.5 -187.5t174 -72.5 t174 72.5t65.5 187.5t-65.5 187.5t-174 72.5t-174 -72.5t-65.5 -187.5zM666 1354q0 63 46 109t109.5 46t109.5 -46t46 -109q0 -66 -46 -112t-109.5 -46t-109.5 46t-46 112z" />
<glyph unicode="&#xf7;" horiz-adv-x="1249" d="M72 723q0 49 36.5 88t86.5 39h860q49 0 86 -39t37 -88q0 -53 -36 -91t-87 -38h-860q-51 0 -87 38t-36 91zM461 266q0 70 48 117t115.5 47t114.5 -47t47 -117q0 -68 -47 -115t-114.5 -47t-115.5 47t-48 115zM461 1177.5q0 67.5 48 114.5t116 47q66 0 113.5 -47 t47.5 -114.5t-48 -114.5t-113 -47q-68 0 -116 47t-48 114.5z" />
<glyph unicode="&#xf8;" horiz-adv-x="1173" d="M78 467q0 223 144.5 356t361.5 133q154 0 276 -69l41 47q18 23 49 22q29 0 48.5 -19t19.5 -48q0 -23 -17 -43l-36 -43q127 -131 127 -336q0 -223 -144.5 -355t-363.5 -132q-152 0 -271 65l-39 -45q-16 -20 -49 -20q-29 0 -48 18t-19 47q0 27 16 43l33 37 q-129 133 -129 342zM344 467q0 -78 33 -143l323 374q-53 29 -116 29q-109 0 -174.5 -72.5t-65.5 -187.5zM473 231q47 -25 111 -24q109 0 174 72.5t65 187.5q0 78 -30 135z" />
<glyph unicode="&#xf9;" horiz-adv-x="1161" d="M117 406v419q0 53 39 92t96 39t96 -38.5t39 -92.5v-403q0 -76 27 -127q49 -86 168 -86q121 0 166 86q27 51 26 127v403q0 53 39 92t96.5 39t96 -38.5t38.5 -92.5v-419q0 -178 -81 -279q-119 -147 -381 -147q-266 0 -383 147q-82 107 -82 279zM416 1485q0 41 31.5 70.5 t74.5 29.5q63 0 96 -67l109 -215q18 -41 18 -64q0 -37 -27.5 -61.5t-64.5 -24.5q-51 0 -86 57l-125 205q-27 39 -26 70z" />
<glyph unicode="&#xfa;" horiz-adv-x="1161" d="M117 406v419q0 53 39 92t96 39t96 -38.5t39 -92.5v-403q0 -76 27 -127q49 -86 168 -86q121 0 166 86q27 51 26 127v403q0 53 39 92t96.5 39t96 -38.5t38.5 -92.5v-419q0 -178 -81 -279q-119 -147 -381 -147q-266 0 -383 147q-82 107 -82 279zM416 1239q0 31 18 64 l109 215q33 68 96 67q43 0 74.5 -29.5t31.5 -70.5q0 -25 -26 -70l-125 -205q-37 -57 -88 -57q-37 0 -63.5 24.5t-26.5 61.5z" />
<glyph unicode="&#xfb;" horiz-adv-x="1161" d="M117 406v419q0 53 39 92t96 39t96 -38.5t39 -92.5v-403q0 -76 27 -127q49 -86 168 -86q121 0 166 86q27 51 26 127v403q0 53 39 92t96.5 39t96 -38.5t38.5 -92.5v-419q0 -178 -81 -279q-119 -147 -381 -147q-266 0 -383 147q-82 107 -82 279zM242 1264q0 37 45 77 l217 207q37 33 75.5 33t75.5 -33l217 -207q45 -41 46 -77q0 -43 -29 -70t-68 -27q-41 0 -71 31l-170 164l-170 -164q-31 -31 -72 -31q-39 0 -67.5 27t-28.5 70z" />
<glyph unicode="&#xfc;" horiz-adv-x="1161" d="M117 406v419q0 53 39 92t96 39t96 -38.5t39 -92.5v-403q0 -76 27 -127q49 -86 168 -86q121 0 166 86q27 51 26 127v403q0 53 39 92t96.5 39t96 -38.5t38.5 -92.5v-419q0 -178 -81 -279q-119 -147 -381 -147q-266 0 -383 147q-82 107 -82 279zM188 1354q0 63 45.5 109 t111 46t110.5 -45t45 -110.5t-45 -111.5t-111 -46q-63 0 -109.5 46t-46.5 112zM664 1354q0 63 45 109t110.5 46t110.5 -46t45 -109q0 -66 -46 -112t-109.5 -46t-109.5 46t-46 112z" />
<glyph unicode="&#xfd;" horiz-adv-x="1030" d="M18 807q0 63 44 107t106 44q102 0 143 -98l228 -573l178 547q38 124 147 124q61 0 104.5 -43t43.5 -104q0 -27 -27 -100l-287 -762q-82 -217 -222 -322.5t-296 -105.5q-55 0 -93 38t-38 91t38 91t93 38q150 0 226 155l-355 775q-33 72 -33 98zM352 1239q0 31 19 64 l108 215q33 68 96 67q43 0 75 -29.5t32 -70.5q0 -25 -27 -70l-125 -205q-37 -57 -88 -57q-37 0 -63.5 24.5t-26.5 61.5z" />
<glyph unicode="&#xfe;" horiz-adv-x="1122" d="M133 -362v1642q0 55 40 93t95 38q57 0 96 -38t39 -93v-330q41 6 91 6q276 0 424 -147q129 -129 129 -342q0 -211 -111 -332q-135 -156 -389 -155q-84 0 -144 16v-358q0 -53 -40.5 -92.5t-94.5 -39.5q-55 0 -95 39t-40 93zM403 219q49 -18 115 -18q119 0 187 59 q74 63 73 207q0 121 -65 192q-68 78 -191 78q-49 0 -119 -8v-510z" />
<glyph unicode="&#xff;" horiz-adv-x="1030" d="M18 807q0 63 44 107t106 44q102 0 143 -98l228 -573l178 547q38 124 147 124q61 0 104.5 -43t43.5 -104q0 -27 -27 -100l-287 -762q-82 -217 -222 -322.5t-296 -105.5q-55 0 -93 38t-38 91t38 91t93 38q150 0 226 155l-355 775q-33 72 -33 98zM125 1354q0 63 46 109 t110 46q66 0 110.5 -45t44.5 -110.5t-44.5 -111.5t-110.5 -46q-63 0 -109.5 46t-46.5 112zM600 1354q0 63 46 109t109.5 46t109.5 -46t46 -109q0 -66 -46 -112t-109.5 -46t-109.5 46t-46 112z" />
<glyph unicode="&#x152;" horiz-adv-x="2416" d="M82 694q0 319 214 519t533 200q252 0 445 -129q10 49 50 80t93 31h809q53 0 91 -39t38 -92.5t-38 -92t-91 -38.5h-661v-302h555q51 0 89 -38.5t38 -92t-37 -91.5t-90 -38h-555v-309h661q53 0 91 -40t38 -91q0 -53 -38 -92t-91 -39h-809q-51 0 -92 30.5t-51 78.5 q-188 -129 -445 -129q-319 0 -533 198.5t-214 515.5zM395 694.5q0 -188.5 124 -314.5t310 -126q188 0 310.5 123t122.5 317.5t-122 318.5t-311 124q-186 0 -310 -127t-124 -315.5z" />
<glyph unicode="&#x153;" horiz-adv-x="1822" d="M78 467q0 223 144.5 356t361.5 133q225 0 368 -139q129 139 353 139q211 0 333 -122q117 -119 117 -295q0 -72 -34.5 -112t-98.5 -40h-512q37 -193 242 -192q82 0 160.5 31.5t103.5 31.5q43 0 71.5 -31.5t28.5 -76.5q0 -78 -117 -125q-109 -45 -266 -45q-236 0 -377 141 q-141 -141 -372 -141q-219 0 -362.5 132t-143.5 355zM344 467q0 -115 65.5 -187.5t174 -72.5t174 72.5t65.5 187.5t-65.5 187.5t-174 72.5t-174 -72.5t-65.5 -187.5zM1108 565h385q-6 76 -56.5 127t-129.5 51q-168 0 -199 -178z" />
<glyph unicode="&#x178;" horiz-adv-x="1196" d="M16 1272q0 61 42 101t104 40q82 0 123 -65l309 -471l315 473q45 63 125 63q61 0 103.5 -41t42.5 -100q0 -53 -29 -94l-408 -598v-457q0 -59 -44 -101t-103 -42t-103 41.5t-44 101.5v459l-404 598q-29 41 -29 92zM205 1780q0 63 45 109t110.5 46t110.5 -45t45 -110.5 t-45 -111.5t-111 -46q-63 0 -109 46t-46 112zM680 1780q0 63 45 109t110.5 46t110.5 -46t45 -109q0 -66 -46 -112t-109.5 -46t-109.5 46t-46 112z" />
<glyph unicode="&#x2c6;" horiz-adv-x="954" d="M139 1264q0 39 45 77l217 207q37 33 76 33q37 0 74 -33l219 -207q43 -37 43 -77q0 -43 -27.5 -70t-66.5 -27q-35 0 -66 25l-176 170l-176 -170q-31 -25 -65 -25q-39 0 -68 27t-29 70z" />
<glyph unicode="&#x2dc;" horiz-adv-x="954" d="M102 1325q0 66 50 119q66 76 163 76q82 0 162 -56q8 -6 25.5 -18t27 -18.5t23.5 -14.5t27.5 -11t25.5 -3q39 0 76 53q39 51 82 51q39 0 60.5 -26.5t21.5 -67.5q0 -63 -47 -119q-70 -76 -164 -76q-82 0 -162 56q-6 4 -31.5 21.5t-35 22.5t-29 12t-35.5 7q-18 0 -34.5 -9 t-21.5 -15t-20 -27q-39 -51 -80 -51t-62.5 26.5t-21.5 67.5z" />
<glyph unicode="&#x2000;" horiz-adv-x="1003" />
<glyph unicode="&#x2001;" horiz-adv-x="2007" />
<glyph unicode="&#x2002;" horiz-adv-x="1003" />
<glyph unicode="&#x2003;" horiz-adv-x="2007" />
<glyph unicode="&#x2004;" horiz-adv-x="669" />
<glyph unicode="&#x2005;" horiz-adv-x="501" />
<glyph unicode="&#x2006;" horiz-adv-x="334" />
<glyph unicode="&#x2007;" horiz-adv-x="334" />
<glyph unicode="&#x2008;" horiz-adv-x="250" />
<glyph unicode="&#x2009;" horiz-adv-x="401" />
<glyph unicode="&#x200a;" horiz-adv-x="111" />
<glyph unicode="&#x2010;" horiz-adv-x="1067" d="M174 575q0 49 37 88t88 39h471q49 0 86 -38.5t37 -88.5q0 -53 -36 -91t-87 -38h-471q-51 0 -88 38t-37 91z" />
<glyph unicode="&#x2011;" horiz-adv-x="1067" d="M174 575q0 49 37 88t88 39h471q49 0 86 -38.5t37 -88.5q0 -53 -36 -91t-87 -38h-471q-51 0 -88 38t-37 91z" />
<glyph unicode="&#x2012;" horiz-adv-x="1067" d="M174 575q0 49 37 88t88 39h471q49 0 86 -38.5t37 -88.5q0 -53 -36 -91t-87 -38h-471q-51 0 -88 38t-37 91z" />
<glyph unicode="&#x2013;" horiz-adv-x="1474" d="M174 516q0 53 38 92t89 39h870q51 0 90 -39t39 -92q0 -55 -37.5 -93t-91.5 -38h-870q-53 0 -90 38t-37 93z" />
<glyph unicode="&#x2014;" horiz-adv-x="2600" d="M174 516q0 53 38 92t89 39h1997q51 0 90 -39t39 -92q0 -55 -38 -93t-91 -38h-1997q-53 0 -90 38t-37 93z" />
<glyph unicode="&#x2018;" horiz-adv-x="573" d="M104 1061q0 150 110 252t198 102q20 0 34.5 -14.5t14.5 -34.5q0 -33 -58.5 -80t-58.5 -94q0 -27 19.5 -47.5t43 -32.5t43 -43t19.5 -78q0 -66 -43 -111.5t-125 -45.5q-92 0 -144.5 62t-52.5 165z" />
<glyph unicode="&#x2019;" horiz-adv-x="573" d="M104 1260q0 66 43 110.5t125 44.5q92 0 144.5 -61.5t52.5 -165.5q0 -150 -109.5 -251t-197.5 -101q-23 0 -37 13t-14 36q0 31 59 79t59 95q0 27 -19.5 46t-43 31.5t-43 44t-19.5 79.5z" />
<glyph unicode="&#x201a;" horiz-adv-x="559" d="M96 137q0 66 43 111t125 45q92 0 144.5 -61.5t52.5 -165.5q0 -147 -109.5 -250t-197.5 -103q-23 0 -37.5 13t-14.5 36q0 31 59.5 79t59.5 96q0 27 -19.5 46t-43 31.5t-43 44t-19.5 78.5z" />
<glyph unicode="&#x201c;" horiz-adv-x="1032" d="M104 1061q0 150 110 252t198 102q20 0 34.5 -14.5t14.5 -34.5q0 -33 -58.5 -80t-58.5 -94q0 -27 19.5 -47.5t43 -32.5t43 -43t19.5 -78q0 -66 -43 -111.5t-125 -45.5q-92 0 -144.5 62t-52.5 165zM565 1061q0 150 109.5 252t195.5 102q23 0 37.5 -14.5t14.5 -34.5 q0 -33 -59.5 -80t-59.5 -94q0 -27 19.5 -47.5t43 -32.5t43 -43t19.5 -78q0 -66 -43 -111.5t-123 -45.5q-92 0 -144.5 62t-52.5 165z" />
<glyph unicode="&#x201d;" horiz-adv-x="1032" d="M104 1260q0 66 43 110.5t125 44.5q92 0 144.5 -61.5t52.5 -165.5q0 -150 -109.5 -251t-197.5 -101q-23 0 -37 13t-14 36q0 31 59 79t59 95q0 27 -19.5 46t-43 31.5t-43 44t-19.5 79.5zM565 1260q0 66 42 110.5t124 44.5q92 0 144.5 -61.5t52.5 -165.5q0 -150 -109.5 -251 t-195.5 -101q-23 0 -37.5 13t-14.5 36q0 31 59.5 79t59.5 95q0 27 -19.5 46t-43 31.5t-43 44t-19.5 79.5z" />
<glyph unicode="&#x201e;" horiz-adv-x="1017" d="M96 137q0 66 43 111t125 45q92 0 144.5 -61.5t52.5 -165.5q0 -147 -109.5 -250t-197.5 -103q-23 0 -37.5 13t-14.5 36q0 31 59.5 79t59.5 96q0 27 -19.5 46t-43 31.5t-43 44t-19.5 78.5zM557 137q0 66 42 111t124 45q92 0 144.5 -61.5t52.5 -165.5q0 -147 -110 -250 t-196 -103q-23 0 -37 13t-14 36q0 31 59.5 79t59.5 96q0 27 -19.5 46t-43 31.5t-43 44t-19.5 78.5z" />
<glyph unicode="&#x2022;" horiz-adv-x="1044" d="M109 698q0 170 121.5 292t291.5 122t292 -122t122 -292t-122 -291.5t-292 -121.5t-291.5 121.5t-121.5 291.5z" />
<glyph unicode="&#x2026;" horiz-adv-x="1890" d="M96 143q0 70 47 117t115 47t116 -47t48 -117q0 -68 -48 -114.5t-116 -46.5t-115 47t-47 114zM782 143q0 70 47.5 117t115 47t114.5 -47t47 -117q0 -68 -47 -114.5t-114.5 -46.5t-115 47t-47.5 114zM1466 143q0 70 48.5 117t115.5 47q66 0 114 -47t48 -117 q0 -68 -48 -114.5t-114 -46.5q-68 0 -116 47t-48 114z" />
<glyph unicode="&#x202f;" horiz-adv-x="401" />
<glyph unicode="&#x2039;" horiz-adv-x="755" d="M82 461q0 49 37 86l344 358q37 37 90 37q49 0 86 -36t37 -85t-35 -88l-264 -272l264 -273q35 -39 35 -88q0 -51 -37 -85.5t-88 -34.5t-88 36l-344 359q-37 37 -37 86z" />
<glyph unicode="&#x203a;" horiz-adv-x="757" d="M82 100q0 53 33 88l264 273l-264 272q-33 35 -33 88q0 51 36 86t85 35q53 0 90 -37l344 -358q39 -39 39 -86t-39 -86l-344 -359q-37 -36 -88 -36q-49 0 -86 34.5t-37 85.5z" />
<glyph unicode="&#x205f;" horiz-adv-x="501" />
<glyph unicode="&#x20ac;" d="M-33 553q0 31 20.5 54.5t51.5 23.5h53q-2 23 -2 69l2 60h-53q-31 0 -51.5 21.5t-20.5 52t20.5 53t51.5 22.5h80q68 231 266.5 368.5t431.5 137.5q164 0 307 -53q117 -45 117 -141q0 -59 -39 -98.5t-94 -39.5q-27 0 -110 34t-189 34q-113 0 -217.5 -64.5t-159.5 -177.5 h533q29 0 51 -22.5t22 -53t-22.5 -52t-50.5 -21.5h-574q-4 -41 -4 -60q0 -47 4 -69h467q29 0 51.5 -23.5t22.5 -54.5t-22.5 -52.5t-51.5 -21.5h-424q55 -111 156.5 -170t218.5 -59q94 0 166 20q27 8 62.5 21.5t58 20.5t39.5 7q55 0 91 -37.5t36 -99.5q0 -92 -121 -141 q-150 -59 -328 -59q-252 0 -441.5 131t-252.5 366h-80q-31 0 -51.5 21.5t-20.5 52.5z" />
<glyph unicode="&#x2122;" horiz-adv-x="1687" d="M68 1384q0 33 21.5 54.5t49.5 21.5h484q31 0 51 -21.5t20 -54.5q0 -31 -20 -53t-51 -22h-158v-512q0 -33 -24.5 -56.5t-59.5 -23.5t-58.5 23.5t-23.5 56.5v512h-160q-29 0 -50 23.5t-21 51.5zM784 795v596q0 33 22.5 55t63.5 22t61.5 -15t45.5 -54l182 -307l180 307 q25 39 45.5 54t61.5 15t64.5 -22.5t23.5 -54.5v-596q0 -33 -23.5 -55.5t-56.5 -22.5q-35 0 -58.5 22.5t-23.5 55.5v366l-143 -241q-23 -46 -70 -46q-49 0 -72 46l-143 241v-366q0 -33 -23.5 -55.5t-56.5 -22.5t-56.5 22.5t-23.5 55.5z" />
<glyph unicode="&#x25fc;" horiz-adv-x="962" d="M0 0v963h963v-963h-963z" />
</font>
</defs>
</svg>
